Любовь 911 / Love 911 (Чон Ки Хун / Gi-hoon Jeong) [2012, Южная Корея, драма, романтика, комедия, HDTVRip-AVC] (DVO) (Sub Rus)

Ответить на тему
 

Jasur S ®

Стаж: 4 года 4 месяца

Сообщений: 110

Симпатии: 111

Любовь 911 / Love 911- Страна: Южная Корея
Жанр: драма, романтика, комедия
Год выпуска: 2012
Продолжительность: 02:00:49
Перевод: Любительский (двухголосый закадровый)
Cубтитры: русские
Оригинальная аудиодорожка: корейский
-
Режиссер: Чон Ки Хун / Gi-hoon Jeong
В ролях: Го Су / Go Soo, Хан Хё Чжу / Hyo-ju Han, Хён Чю Ни / Jyu-ni Hyun, Ким Сон О / Seong-oh Kim, Ма Дон Сок / Dong-seok Ma,Чжин Со Ен / Jin Seo-Yeon
-
Описание: Ми Су - врач с непростым и вспыльчивым характером. Однажды, приняв мужа пациентки за гангстера, она ставит неправильный диагноз, вследствие чего женщина оказывается при смерти. И теперь, чтобы спасти себя и свою карьеру, ей нужно найти свидетеля, который даст показания в ее защиту.
Кан Иль - пожарный, посвятивший себя спасению людей даже ценой собственной жизни. Потеряв жену, он закрывается от внешнего мира, неохотно идя с ним на контакт. И так выходит, что в попытке защитить мужа пациентки от самого себя, Кан Иль сам становится жертвой, когда мужчина нападает на него.
Казалось бы, теперь у Ми Су есть шанс заполучить столь необходимого ей свидетеля - нужно всего лишь подружиться с пожарным. Вот только дамочка малость ошиблась - Кан Иль не так-то прост. Да и настоящая любовь, как обычно, приходит тогда, когда ее ждешь меньше всего. (c)Selena Min
-
Доп. информация: Перевод осуществляла команда фансаб-группы "Альянс"
Переводчик: Cale
Редактор: Lady Flame
Тайпсеттер: AngelMa
Озвучивание Ворон и Sandairina(ФСГ "Альянс")
-
Качество видео: HDTVRip-AVC
Формат видео: MKV
Видео: 720 x 304 (2.368:1), 23.976 fps, x264 ~1529 kbps avg, 0.291 bit/pixel
Аудио: 48 kHz, AC3 Dolby Digital, 3/2 (L,C,R,l,r) + LFE ch, ~448 kbps (Корейский)
Аудио 2: 48 kHz, AC3 Dolby Digital, 3/2 (L,C,R,l,r) + LFE ch, ~448 kbps (Русский)
Формат субтитров: softsub (SSA/ASS)

MediaInfo

General
Unique ID : 179179467332501195355563749791747851629 (0x86CCB5CCC03F8CEB818DCED647E0C56D)
Complete name : D:\movies\Love 911\Love.911.2012.HDTVRip-AVC.RU.KO.[BTT-TEAM_&_Alliance].mkv
Format : Matroska
Format version : Version 4 / Version 2
File size : 2.05 GiB
Duration : 2h 0mn
Overall bit rate : 2 427 Kbps
Encoded date : UTC 2013-05-29 20:12:04
Writing application : mkvmerge v6.1.0 ('Old Devil') built on Mar 2 2013 14:32:37
Writing library : libebml v1.3.0 + libmatroska v1.4.0
Video
ID : 1
Format : AVC
Format/Info : Advanced Video Codec
Format profile : [email protected]
Format settings, CABAC : Yes
Format settings, ReFrames : 6 frames
Codec ID : V_MPEG4/ISO/AVC
Bit rate : 1 529 Kbps
Width : 720 pixels
Height : 304 pixels
Display aspect ratio : 2.35:1
Frame rate mode : Variable
Original frame rate : 23.976 fps
Color space : YUV
Chroma subsampling : 4:2:0
Bit depth : 8 bits
Scan type : Progressive
Bits/(Pixel*Frame) : 0.291
Writing library : x264 core 133 r2334 a3ac64b
Encoding settings : cabac=1 / ref=6 / deblock=1:-2:-1 / analyse=0x3:0x113 / me=umh / subme=7 / psy=1 / psy_rd=1.00:0.10 / mixed_ref=1 / me_range=16 / chroma_me=1 / trellis=2 / 8x8dct=1 / cqm=0 / deadzone=21,11 / fast_pskip=1 / chroma_qp_offset=-3 / threads=3 / lookahead_threads=1 / sliced_threads=0 / nr=0 / decimate=0 / interlaced=0 / bluray_compat=0 / constrained_intra=0 / bframes=8 / b_pyramid=2 / b_adapt=2 / b_bias=0 / direct=3 / weightb=1 / open_gop=0 / weightp=2 / keyint=240 / keyint_min=23 / scenecut=40 / intra_refresh=0 / rc_lookahead=50 / rc=2pass / mbtree=0 / bitrate=1529 / ratetol=1.0 / qcomp=0.65 / qpmin=10 / qpmax=51 / qpstep=4 / cplxblur=20.0 / qblur=0.5 / vbv_maxrate=62500 / vbv_bufsize=78125 / nal_hrd=none / ip_ratio=1.40 / pb_ratio=1.30 / aq=1:1.00
Default : Yes
Forced : No
Matrix coefficients : BT.709
Audio #1
ID : 2
Format : AC-3
Format/Info : Audio Coding 3
Mode extension : CM (complete main)
Format settings, Endianness : Big
Codec ID : A_AC3
Duration : 2h 0mn
Bit rate mode : Constant
Bit rate : 448 Kbps
Channel(s) : 6 channels
Channel positions : Front: L C R, Side: L R, LFE
Sampling rate : 48.0 KHz
Bit depth : 16 bits
Compression mode : Lossy
Stream size : 387 MiB (18%)
Title : Ворон и Sandairina
Language : Russian
Default : Yes
Forced : No
Audio #2
ID : 3
Format : AC-3
Format/Info : Audio Coding 3
Mode extension : CM (complete main)
Format settings, Endianness : Big
Codec ID : A_AC3
Duration : 2h 0mn
Bit rate mode : Constant
Bit rate : 448 Kbps
Channel(s) : 6 channels
Channel positions : Front: L C R, Side: L R, LFE
Sampling rate : 48.0 KHz
Bit depth : 16 bits
Compression mode : Lossy
Stream size : 387 MiB (18%)
Title : Original
Language : Korean
Default : No
Forced : No
Text #1
ID : 4
Format : ASS
Codec ID : S_TEXT/ASS
Codec ID/Info : Advanced Sub Station Alpha
Compression mode : Lossless
Title : форсированный(надписи)
Language : Russian
Default : Yes
Forced : Yes
Text #2
ID : 5
Format : ASS
Codec ID : S_TEXT/ASS
Codec ID/Info : Advanced Sub Station Alpha
Compression mode : Lossless
Title : Перевод[фансаб-группы "Альянс"]
Language : Russian
Default : No
Forced : No

Скриншоты







Создавать темы 16-Окт-2015 21:32

[Профиль]  [ЛС] 

Jasur S ®

Стаж: 4 года 4 месяца

Сообщений: 110

Симпатии: 111

Оформил релиз чуть раньше, так как завтра не будет времени) Всем приятного просмотра...)Следующий релиз будет 24.10.2015 "The Beauty Inside" (2015)

Создавать темы 16-Окт-2015 21:49

[Профиль]  [ЛС] 
Показать сообщения:    
Ответить на тему

Текущее время: 19-Авг 23:44

Часовой пояс: UTC + 5



Вы не можете начинать темы
Вы не можете отвечать на сообщения
Вы не можете редактировать свои сообщения
Вы не можете удалять свои сообщения
Вы не можете голосовать в опросах
Вы не можете прикреплять файлы к сообщениям
Вы не можете скачивать файлы