[Lynda.com] Lynda.com | Основы Веб Технологий/Web Technology Fundamentals†(2013) PCRec RUS [2013, RUS]

Ответить на тему
 

hulki ®

Стаж: 3 года 9 месяцев

Сообщений: 75

Симпатии: 8

Lynda.com | Основы Веб Технологий/Web Technology Fundamentals (2013) PCRec
Автор (режиссер): Lynda.com
Жанр: Программирование
Продолжительность: 02:04:00
Качество видео: PCRec
Есть ли Русский перевод?: Да
Описание: Вы используете веб каждый день для оплаты счетов, поиска информации, совершения покупок, общения в социальных сетях, но знаете ли вы, как он работает? В этом курсе Джеймс Уильямсон представит веб-технологии, ознакомит вас с соответствующими терминами и расскажет, как благодаря совместной работе многих компонентов мы можем посещать любимые веб-сайты. Он рассмотрит основы (HTML, CSS, URL, DNS, HTTP и IPv6) и объяснит, что отделяет в Интернете клиентскую часть (то, что мы видим) от серверной (которую мы не видим). Этот курс — краткое и понятное введение в мир доменов, баз данных, серверов и технологий, благодаря которым работает и живет веб.
Видеокодек: MPEG-4
Битрейт видео: ~1209 kb/s 15,00 FPS
Размер кадра: 1280 x 720
Аудиокодек: AC3 2.0
Битрейт аудио: 192 kb/s (CBR), 2 Ch, 44100 Hz

Темы курса:

Работа с веб-клиентами и серверами
Протокол HTTP
Как работают браузеры
Структурирование HTML
Управление представлением с помощью CSS
Сценарии JavaScript
Работа с данными
Работа с системами управления контентом, такими как WordPress
Использование облачных служб

Mediainfo:

Общее
Полное имя                               : C:\Lynda.com - Основы Веб Технологий
Формат                                   : MPEG-4
Профиль формата                          : Base Media
Идентификатор кодека                     : isom
Размер файла                             : 87,7 Мбайт
Продолжительность                        : 7 м. 14 с.
Режим общего битрейта                    : Переменный
Общий поток                              : 1695 Кбит/сек
Дата кодирования                         : UTC 2014-03-04 21:21:11
Дата пометки                             : UTC 2014-03-04 21:21:11
Видео
Идентификатор                            : 1
Формат                                   : MPEG-4 Visual
Профиль формата                          : [email protected]
Параметр BVOP формата                    : Нет
Параметр QPel формата                    : Нет
Параметр GMC формата                     : Без точки перехода
Параметр матрицы формата                 : Default (H.263)
Идентификатор кодека                     : 20
Продолжительность                        : 7 м. 14 с.
Вид битрейта                             : Переменный
Битрейт                                  : 1209 Кбит/сек
Максимальный битрейт                     : 6773 Кбит/сек
Ширина                                   : 1280 пикселей
Высота                                   : 720 пикселей
Соотношение сторон                       : 16:9
Режим частоты кадров                     : Постоянный
Частота кадров                           : 15,000 кадров/сек
Цветовое пространство                    : YUV
Субдискретизация насыщенности            : 4:2:0
Битовая глубина                          : 8 бит
Тип развёртки                            : Прогрессивная
Метод сжатия                             : С потерями
Бит/(Пиксели*Кадры)                      : 0.087
Размер потока                            : 62,5 Мбайт (71%)
Библиотека кодирования                   : Lavc51.40.4
Язык                                     : English
Дата кодирования                         : UTC 2014-03-04 21:21:11
Дата пометки                             : UTC 2014-03-04 21:21:12
Аудио #1
Идентификатор                            : 2
Формат                                   : AC-3
Формат/Информация                        : Audio Coding 3
Расширение режима                        : CM (complete main)
Параметр Endianness формата              : Big
Идентификатор кодека                     : ac-3
Продолжительность                        : 7 м. 14 с.
Вид битрейта                             : Постоянный
Битрейт                                  : 192 Кбит/сек
Каналы                                   : 1 канал
Расположение каналов                     : Front: C
Частота                                  : 44,1 КГц
Битовая глубина                          : 16 бит
Метод сжатия                             : С потерями
Размер потока                            : 9,93 Мбайт (11%)
Заголовок                                : 01_06 Anatomy of a URL_Dub.ac3 - Imported with GPAC 0.5.0-rev4065
Дата кодирования                         : UTC 2014-03-04 21:21:12
Дата пометки                             : UTC 2014-03-04 21:21:12
Аудио #2
Идентификатор                            : 3
Формат                                   : AC-3
Формат/Информация                        : Audio Coding 3
Расширение режима                        : CM (complete main)
Параметр Endianness формата              : Big
Идентификатор кодека                     : ac-3
Продолжительность                        : 7 м. 14 с.
Вид битрейта                             : Постоянный
Битрейт                                  : 192 Кбит/сек
Каналы                                   : 1 канал
Расположение каналов                     : Front: C
Частота                                  : 44,1 КГц
Битовая глубина                          : 16 бит
Метод сжатия                             : С потерями
Размер потока                            : 9,93 Мбайт (11%)
Заголовок                                : 01_06 Anatomy of a URL_Over.ac3 - Imported with GPAC 0.5.0-rev4065
Дата кодирования                         : UTC 2014-03-04 21:21:12
Дата пометки                             : UTC 2014-03-04 21:21:12
Аудио #3
Идентификатор                            : 4
Формат                                   : AAC
Формат/Информация                        : Advanced Audio Codec
Профиль формата                          : LC
Идентификатор кодека                     : 40
Продолжительность                        : 7 м. 13 с.
Вид битрейта                             : Переменный
Битрейт                                  : 96,0 Кбит/сек
Максимальный битрейт                     : 115 Кбит/сек
Каналы                                   : 2 канала
Расположение каналов                     : Front: L R
Частота                                  : 44,1 КГц
Метод сжатия                             : С потерями
Размер потока                            : 5,04 Мбайт (6%)
Язык                                     : English
Дата кодирования                         : UTC 2014-03-04 21:21:12
Дата пометки                             : UTC 2014-03-04 21:21:12

Скриншоты




Создавать темы 17-Окт-2015 18:36

[Профиль]  [ЛС] 
Показать сообщения:    
Ответить на тему

Текущее время: 17-Окт 11:14

Часовой пояс: UTC + 5



Вы не можете начинать темы
Вы не можете отвечать на сообщения
Вы не можете редактировать свои сообщения
Вы не можете удалять свои сообщения
Вы не можете голосовать в опросах
Вы не можете прикреплять файлы к сообщениям
Вы не можете скачивать файлы