Посланник / The Messenger (Орен Моверман) [2009, США, драма, мелодрама, военный, DVDRip] (MVO)

Ответить на тему
 

X-MART ®

Стаж: 1 год 10 месяцев

Сообщений: 21

Симпатии: 14

Посланник / The Messenger
«Эта сторона войны всегда была закрыта для посторонних глаз»

Страна: США
Жанр: драма, мелодрама, военный
Год выпуска: 2009
Продолжительность: 1:52:55
Перевод: Профессиональный (многоголосый закадровый)
Cубтитры: нет
Режиссер: Орен Моверман
В ролях: Бен Фостер
Вуди Харрельсон
Саманта Мортон
Джена Мэлоун
Стив Бушеми
Имонн Уолкер
Йайа ДаКоста
Описание: Обязанности сержанта армии Соединенных Штатов Уилла Монтгомери просты и печальны — он должен лично сообщать жёнам погибших солдат о том, что их мужья не вернутся с фронта живыми. Сложно представить этическую дилемму «посланника смерти», ведь у сержанта Монтгомери появились чувства к одной из солдатских вдов.

Доп. информация

В различные моменты на ранних стадиях производства проекта место режиссера закреплялось за Сидни Поллаком, Роджером Мичеллом и Беном Аффлеком. После того как каждый из них по разным причинам отказался от работы над ним, продюсеры неожиданно предложили заняться постановкой картины одному из соавторов сценария Орену Моверману.
Фильм номинирован на премию «Оскар» в двух категориях — лучший актер 2-го плана (Вуди Харрельсон) и лучший оригинальный сценарий. Так же фильм вошел в список 10-ти лучших американских фильмов 2009-го года по мнению Американского киноинститута.
Качество видео: DVDRip
Формат видео: AVI
Видео: XVID 720х304 2.35:1 23.976 fps 1 274 Kbps
Аудио: AC-3 448 Kbps 48.0 KHz 6 channels

MediaInfo

General
Complete name : D:\\Poslannik.DVDRip..avi
Format : AVI
Format/Info : Audio Video Interleave
File size : 1.37 GiB
Duration : 1h 52mn
Overall bit rate : 1 731 Kbps
Writing application : VirtualDubMod 1.5.10.2 (build 2540/release)
Writing library : VirtualDubMod build 2540/release
Video
ID : 0
Format : MPEG-4 Visual
Format profile : Advanced [email protected]
Format settings, BVOP : 3
Format settings, QPel : No
Format settings, GMC : No warppoints
Format settings, Matrix : Custom
Codec ID : XVID
Codec ID/Hint : XviD
Duration : 1h 52mn
Bit rate : 1 274 Kbps
Width : 720 pixels
Height : 304 pixels
Display aspect ratio : 2.35:1
Frame rate : 23.976 fps
Color space : YUV
Chroma subsampling : 4:2:0
Bit depth : 8 bits
Scan type : Progressive
Compression mode : Lossy
Bits/(Pixel*Frame) : 0.243
Stream size : 1.00 GiB (74%)
Writing library : XviD 1.2.1 (UTC 2008-12-04)
Audio
ID : 1
Format : AC-3
Format/Info : Audio Coding 3
Mode extension : CM (complete main)
Format settings, Endianness : Big
Codec ID : 2000
Duration : 1h 52mn
Bit rate mode : Constant
Bit rate : 448 Kbps
Channel(s) : 6 channels
Channel positions : Front: L C R, Side: L R, LFE
Sampling rate : 48.0 KHz
Bit depth : 16 bits
Compression mode : Lossy
Stream size : 362 MiB (26%)
Alignment : Split accross interleaves
Interleave, duration : 42 ms (1.00 video frame)
Interleave, preload duration : 500 ms

Скриншот c названием фильма

Скриншоты

Создавать темы 18-Окт-2015 00:20

[Профиль]  [ЛС] 
Показать сообщения:    
Ответить на тему

Текущее время: 19-Авг 18:10

Часовой пояс: UTC + 5



Вы не можете начинать темы
Вы не можете отвечать на сообщения
Вы не можете редактировать свои сообщения
Вы не можете удалять свои сообщения
Вы не можете голосовать в опросах
Вы не можете прикреплять файлы к сообщениям
Вы не можете скачивать файлы