Психотерапевт / Psy (Филипп Де Брока) [1980, Франция, комедия, DVDRip] (DVO) + Original (Fre)

Ответить на тему
 

lotto ®

Стаж: 7 лет 11 месяцев

Сообщений: 221

Симпатии: 409

Психотерапевт / Psy-- Страна: Франция
Жанр: комедия
Год выпуска: 1980
Продолжительность: 01:29:32
Перевод: Профессиональный (двухголосый закадровый)
Cубтитры: нет
Оригинальная аудиодорожка: французский--Режиссер: Филипп Де Брока
В ролях: Патрик Девэр, Анни Дюпере, Жан-Франсуа Стевенен, Катрин Фро, Мишель Кретон, Алин Бертран, Дженнифер, Жан-Пьер Дарруссен, Доминик Беснеар, Шарлотта Мори-Сентье--Описание: Фильм Филиппа де Брока остроумно исследует скользкую грань между психиатром и пациентом, а также помогает блестящему Патрику Деваэру показать свой комедийный дар.
Деваэр в роли психиатра, который задумал заняться частной практикой в своем загородном доме, пригласив туда пациентов на уик-энд и устроив им сеанс групповой терапии на природе. Терапия вылилась в тотальное “доставание” психиатра всеми его пациентами, причем каждый преуспел в этом по-своему, а также приехавшими гостями, включая его бывшую жену.-- --Качество видео: DVDRip
Формат видео: AVI
Видео: DivX, 696x448, 25 fps, 1908 kbps
Аудио: MP3, 44.1 kHz, 192 kbps (русский, двухголосый)
Аудио 2: MP3, 48 kHz, 128 kbps (французский)

MediaInfo

General
Complete name : Psy.grafd.fenixclub.com.avi
Format : AVI
Format/Info : Audio Video Interleave
File size : 1.40 GiB
Duration : 1h 29mn
Overall bit rate : 2 244 Kbps
Director : grafd
Writing application : VirtualDubMod 1.5.10.2 (build 2542/release)
Writing library : VirtualDubMod build 2542/release
Comment : fenixclub.com
Video
ID : 0
Format : MPEG-4 Visual
Format settings, BVOP : Yes
Format settings, QPel : No
Format settings, GMC : No warppoints
Format settings, Matrix : Default (H.263)
Codec ID : DX50
Codec ID/Hint : DivX 5
Duration : 1h 29mn
Bit rate : 1 909 Kbps
Width : 696 pixels
Height : 448 pixels
Display aspect ratio : 16:10
Frame rate : 25.000 fps
Color space : YUV
Chroma subsampling : 4:2:0
Bit depth : 8 bits
Scan type : Progressive
Compression mode : Lossy
Bits/(Pixel*Frame) : 0.245
Stream size : 1.19 GiB (85%)
Writing library : DivX 5.0.5 (UTC 2003-04-24)
Audio #1
ID : 1
Format : MPEG Audio
Format version : Version 1
Format profile : Layer 3
Codec ID : 55
Codec ID/Hint : MP3
Duration : 1h 29mn
Bit rate mode : Constant
Bit rate : 192 Kbps
Channel(s) : 2 channels
Sampling rate : 44.1 KHz
Compression mode : Lossy
Delay relative to video : 14ms
Stream size : 123 MiB (9%)
Alignment : Split accross interleaves
Interleave, duration : 40 ms (1.00 video frame)
Interleave, preload duration : 500 ms
Audio #2
ID : 2
Format : MPEG Audio
Format version : Version 1
Format profile : Layer 3
Mode : Joint stereo
Mode extension : MS Stereo
Codec ID : 55
Codec ID/Hint : MP3
Duration : 1h 29mn
Bit rate mode : Constant
Bit rate : 128 Kbps
Channel(s) : 2 channels
Sampling rate : 48.0 KHz
Compression mode : Lossy
Stream size : 82.0 MiB (6%)
Alignment : Split accross interleaves
Interleave, duration : 40 ms (1.00 video frame)
Interleave, preload duration : 500 ms

Скриншот c названием фильма

Скриншоты





Создавать темы 18-Окт-2015 13:22

[Профиль]  [ЛС] 
Показать сообщения:    
Ответить на тему

Текущее время: 12-Дек 21:07

Часовой пояс: UTC + 5



Вы не можете начинать темы
Вы не можете отвечать на сообщения
Вы не можете редактировать свои сообщения
Вы не можете удалять свои сообщения
Вы не можете голосовать в опросах
Вы не можете прикреплять файлы к сообщениям
Вы не можете скачивать файлы