Забыть / 4Got10 (Тимоти Вудворд мл.) [2015, США, Боевик, Триллер, Вестерн, HDRip] (Dub : [Павел Морозов aka PashaUp]

Ответить на тему
 

ruhal ®

Стаж: 2 года 4 месяца

Сообщений: 1182

Симпатии: 1836

- - -Забыть / 4Got10-Страна: США
Жанр: Боевик, Триллер, Вестерн
Год выпуска: 2015
Продолжительность: 01:24:07-Перевод: Любительский (одноголосый) (Павел Морозов aka PashaUp)
Cубтитры: нет-Режиссер:
Тимоти Вудворд мл.-В ролях:
Джонни Месснер, Дольф Лундгрен, Дэнни Трехо, Вивика А. Фокс,
Майкл Паре, Наташа Мальте, Джон Лофлин, Энджелл Конвелл-Описание:
Брайан Барнс просыпается в пустыне. Он ранен и без памяти, и не понимает,
почему его окружают восемь трупов, фургон с четырьмя миллионами наличными и еще один фургон с кокаином.
Брайана преследует не только пресловутый наркобарон Дэнни Перес,
который отчаянно хочет вернуть обратно свои деньги, но и агент Рукер,
а также коррумпированный шериф Олсон, который не остановится ни перед чем,
чтобы заполучить деньги. Чем больше Брайан вспоминает о прошлом,
тем меньше он хочет знать о том, кто он на самом деле.-Качество видео: HDRip
Формат видео: AVI
Видео: Xvid 720x304 23.976fps 1875kbps
Аудио: Dolby AC3 48000Hz 6ch 448kbps
-

MediaInfo

General
Complete name : E:\Films\4Got10.2015.HDRip.1400.avi
Format : AVI
Format/Info : Audio Video Interleave
File size : 1.37 GiB
Duration : 1h 24mn
Overall bit rate : 2 333 Kbps
Writing application : VirtualDubMod 1.5.10.2 (build 2540/release)
Writing library : VirtualDubMod build 2540/release
Copyright : ExKinoRay
Video
ID : 0
Format : MPEG-4 Visual
Format profile : Advanced [email protected]
Format settings, BVOP : 1
Format settings, QPel : No
Format settings, GMC : No warppoints
Format settings, Matrix : Custom
Codec ID : XVID
Codec ID/Hint : XviD
Duration : 1h 24mn
Bit rate : 1 876 Kbps
Width : 720 pixels
Height : 304 pixels
Display aspect ratio : 2.35:1
Frame rate : 23.976 fps
Color space : YUV
Chroma subsampling : 4:2:0
Bit depth : 8 bits
Scan type : Progressive
Compression mode : Lossy
Bits/(Pixel*Frame) : 0.357
Stream size : 1.10 GiB (80%)
Writing library : XviD 73
Audio
ID : 1
Format : AC-3
Format/Info : Audio Coding 3
Mode extension : CM (complete main)
Format settings, Endianness : Big
Codec ID : 2000
Duration : 1h 24mn
Bit rate mode : Constant
Bit rate : 448 Kbps
Channel(s) : 6 channels
Channel positions : Front: L C R, Side: L R, LFE
Sampling rate : 48.0 KHz
Compression mode : Lossy
Stream size : 270 MiB (19%)
Alignment : Split accross interleaves
Interleave, duration : 42 ms (1.00 video frame)
Interleave, preload duration : 500 ms
Title : PashaUp

Скриншот с названием фильма

Скриншоты





Создавать темы 19-Окт-2015 14:30

[Профиль]  [ЛС] 

hamilion

Стаж: 4 года 11 месяцев

Сообщений: 155

Симпатии: 14

4Got10 (2015) - IMDb
Рейтинг: 3,9

Создавать темы 19-Окт-2015 19:20

[Профиль]  [ЛС] 

Pavelten

Стаж: 1 год 10 месяцев

Сообщений: 17

Симпатии: 2

ruhal, Спасибо ! с меня +++

Создавать темы 19-Окт-2015 20:27

[Профиль]  [ЛС] 

ruhal ®

Стаж: 2 года 4 месяца

Сообщений: 1182

Симпатии: 1836

955670ruhal, Спасибо ! с меня +++
не за что

Создавать темы 19-Окт-2015 21:27

[Профиль]  [ЛС] 
Показать сообщения:    
Ответить на тему

Текущее время: 18-Авг 06:11

Часовой пояс: UTC + 5



Вы не можете начинать темы
Вы не можете отвечать на сообщения
Вы не можете редактировать свои сообщения
Вы не можете удалять свои сообщения
Вы не можете голосовать в опросах
Вы не можете прикреплять файлы к сообщениям
Вы не можете скачивать файлы