Просто это любовь / Gwaenchanha, Sarangiya / It's Alright, It's Love [16/16] [2014, мелодрама, романтика, медицина, HDTVRip] [RAW] [360p]

Ответить на тему
 

Jasur S ®

Стаж: 4 года 4 месяца

Сообщений: 110

Симпатии: 111

Просто это любовь / Gwaenchanha, Sarangiya / It's Alright, It's Love-
-
Год выпуска: 2014
Страна: Южная Корея
Жанр: мелодрама, романтика, медицина
Продолжительность: 16 серий
Перевод: русские субтитры
Канал: SBS
-
Режиссер: Ким Гю Тхэ
-
В ролях: Чо Ин Сон, Гон Хё Чжин, Сон Дон Иль, Ли Кван Су
Описание: Он - писатель детективов и диджей на радио. Только вот манией он страдает.
Она - врач-психиатр. Ей не хотелось проводить операции, вот и пошла в психиатрию.
Когда герои встречаются, начинается самое интересное...
-
Дополнительно: Русские субтитры фансаб-группы Мания
Тизер к дорамке - http://mover.uz/watch/qbKI04vj/
OST - https://tas-ix.net/viewtopic.php?t=109883
-
Качество: HDTVRip
Формат: AVI
Видео: 624x352 (1.77:1), 29.970 fps, XviD build 50 ~1449 kbps avg, 0.22 bit/pixel
Аудио: 48 kHz, MPEG Layer 3, 2 ch, ~128.00 kbps avg

MediaInfo

General
Complete name : D:\dramas\It's Okay, It's Love\It's Okay It's Love doramamania Ep01.avi
Format : AVI
Format/Info : Audio Video Interleave
File size : 668 MiB
Duration : 58mn 40s
Overall bit rate : 1 592 Kbps
Movie name : ±¦ВъѕЖ, »з¶ыАМѕЯ.E01.140723.HDTV.XviD-LIMO
Writing application : VirtualDubMod 1.5.10.2 (build 2540/release)
Video
ID : 0
Format : MPEG-4 Visual
Format profile : Advanced [email protected]
Format settings, BVOP : No
Format settings, QPel : No
Format settings, GMC : No warppoints
Format settings, Matrix : Default (MPEG)
Codec ID : XVID
Codec ID/Hint : XviD
Duration : 58mn 40s
Bit rate : 1 450 Kbps
Width : 624 pixels
Height : 352 pixels
Display aspect ratio : 16:9
Frame rate : 29.970 fps
Color space : YUV
Chroma subsampling : 4:2:0
Bit depth : 8 bits
Scan type : Progressive
Compression mode : Lossy
Bits/(Pixel*Frame) : 0.220
Stream size : 608 MiB (91%)
Writing library : XviD 1.2.1 (UTC 2008-12-04)
Audio
ID : 1
Format : MPEG Audio
Format version : Version 1
Format profile : Layer 3
Mode : Joint stereo
Mode extension : MS Stereo
Codec ID : 55
Codec ID/Hint : MP3
Duration : 58mn 40s
Bit rate mode : Constant
Bit rate : 128 Kbps
Channel(s) : 2 channels
Sampling rate : 48.0 KHz
Compression mode : Lossy
Stream size : 53.7 MiB (8%)
Alignment : Aligned on interleaves
Interleave, duration : 24 ms (0.72 video frame)
Language : Undefined

Скриншоты






Последний раз редактировалось: Jasur S (2015-11-13 17:11), всего редактировалось 2 раз(а)

Создавать темы 19-Окт-2015 21:55

[Профиль]  [ЛС] 
Показать сообщения:    
Ответить на тему

Текущее время: 20-Авг 15:01

Часовой пояс: UTC + 5



Вы не можете начинать темы
Вы не можете отвечать на сообщения
Вы не можете редактировать свои сообщения
Вы не можете удалять свои сообщения
Вы не можете голосовать в опросах
Вы не можете прикреплять файлы к сообщениям
Вы не можете скачивать файлы