Джезабель / Jessabelle (Кевин Гротерт) [2014, США, Ужасы, триллер, BDRip] (Dub) (Sub Eng)

Ответить на тему
 

ziyod ®

Стаж: 7 лет 6 месяцев

Сообщений: 367

Симпатии: 60

-Джезабель / Jessabelle
-Страна: США
Жанр: Ужасы, триллер
Год выпуска: 2014
Продолжительность: 01:30:06
Перевод: Профессиональный (дублированный)
Cубтитры: английские
Режиссер: Кевин Гротерт-В ролях: Сара Снук, Джоэль Картер, Марк Веббер, Дэвид Эндрюс, Ана де ла Регера, Эмбер Стивенс, Крис Эллис, Брайан Хэллисей, Вон Уилсон, Лариса Олейник-Описание: После трагической аварии, унесшей жизни мужа Джесси и их еще нерожденного ребенка, девушка оказывается прикована к инвалидному креслу и вынуждена переехать к своему отцу, проживающему в отдаленном особняке. Вскоре она обнаруживает загадочные видеозаписи, снятые ее давно умершей матерью. Джесси с ужасом понимает, что таинственные предсказания начинают сбываться…-Качество видео: BDRip
Формат видео: MKV
Видео: MPEG-4 AVC, 8325 Кбит/с, 1280x720, 23,976 fps
Аудио: AC3, 384 kb/s (6 ch), 48 kHz-

MediaInfo

General
Unique ID : 224147776763766161411139970483120539347 (0xA8A14AA14C5B6589B067E9A7A39C86D3)
Complete name : Джезабель.D.BDRip.720p.mkv
Format : Matroska
Format version : Version 4 / Version 2
File size : 5.61 GiB
Duration : 1h 30mn
Overall bit rate : 8 916 Kbps
Encoded date : UTC 2015-10-15 09:55:37
Writing application : mkvmerge v7.6.0 ('Garden of Dreams') 32bit built on Feb 8 2015 12:51:39
Writing library : libebml v1.3.1 + libmatroska v1.4.2
_STATISTICS_WRITING_APP : mkvmerge v7.6.0 ('Garden of Dreams') 32bit built on Feb 8 2015 12:51:39
_STATISTICS_WRITING_DATE_UT : 2015-10-15 09:55:37
_STATISTICS_TAGS : BPS DURATION NUMBER_OF_FRAMES NUMBER_OF_BYTES
DURATION : 01:22:39.788000000
NUMBER_OF_FRAMES : 832
NUMBER_OF_BYTES : 26102
Video
ID : 1
Format : AVC
Format/Info : Advanced Video Codec
Format profile : [email protected]
Format settings, CABAC : Yes
Format settings, ReFrames : 9 frames
Codec ID : V_MPEG4/ISO/AVC
Duration : 1h 30mn
Bit rate : 8 354 Kbps
Width : 1 280 pixels
Height : 720 pixels
Display aspect ratio : 16:9
Frame rate mode : Constant
Frame rate : 23.976 fps
Color space : YUV
Chroma subsampling : 4:2:0
Bit depth : 8 bits
Scan type : Progressive
Bits/(Pixel*Frame) : 0.378
Stream size : 5.26 GiB (94%)
Writing library : x264 core 142 r2431kMod ac76440
Encoding settings : cabac=1 / ref=9 / deblock=1:-3:-3 / analyse=0x3:0x133 / me=umh / subme=11 / psy=1 / fade_compensate=0.00 / psy_rd=1.00:0.00 / mixed_ref=1 / me_range=24 / chroma_me=1 / trellis=2 / 8x8dct=1 / cqm=0 / deadzone=21,11 / fast_pskip=0 / chroma_qp_offset=-2 / threads=24 / lookahead_threads=4 / sliced_threads=0 / nr=0 / decimate=0 / interlaced=0 / bluray_compat=0 / constrained_intra=0 / fgo=0 / bframes=8 / b_pyramid=2 / b_adapt=2 / b_bias=0 / direct=3 / weightb=1 / open_gop=0 / weightp=2 / keyint=250 / keyint_min=23 / scenecut=40 / intra_refresh=0 / rc=crf / mbtree=0 / crf=16.5000 / qcomp=0.70 / qpmin=0 / qpmax=69 / qpstep=4 / ip_ratio=1.30 / pb_ratio=1.20 / aq=1:0.80
Language : English
Default : Yes
Forced : No
_STATISTICS_WRITING_APP : mkvmerge v7.6.0 ('Garden of Dreams') 32bit built on Feb 8 2015 12:51:39
_STATISTICS_WRITING_DATE_UT : 2015-10-15 09:55:37
_STATISTICS_TAGS : BPS DURATION NUMBER_OF_FRAMES NUMBER_OF_BYTES
DURATION : 01:30:07.027000000
NUMBER_OF_FRAMES : 129639
NUMBER_OF_BYTES : 5765127124
Audio
ID : 2
Format : AC-3
Format/Info : Audio Coding 3
Mode extension : CM (complete main)
Format settings, Endianness : Big
Codec ID : A_AC3
Duration : 1h 30mn
Bit rate mode : Constant
Bit rate : 384 Kbps
Channel(s) : 6 channels
Channel positions : Front: L C R, Side: L R, LFE
Sampling rate : 48.0 KHz
Compression mode : Lossy
Stream size : 248 MiB (4%)
Language : Russian
Default : Yes
Forced : No
Text #1
ID : 3
Format : UTF-8
Codec ID : S_TEXT/UTF8
Codec ID/Info : UTF-8 Plain Text
Language : English
Default : No
Forced : No
Text #2
ID : 4
Format : UTF-8
Codec ID : S_TEXT/UTF8
Codec ID/Info : UTF-8 Plain Text
Title : SDH
Language : English
Default : No
Forced : No
Menu
00:00:00.000 : en:00:00:00.000
00:09:31.654 : en:00:09:31.654
00:14:48.137 : en:00:14:48.137
00:23:01.255 : en:00:23:01.255
00:28:35.088 : en:00:28:35.088
00:37:37.714 : en:00:37:37.714
00:43:15.635 : en:00:43:15.635
00:49:42.855 : en:00:49:42.855
00:57:29.029 : en:00:57:29.029
01:05:09.697 : en:01:05:09.697
01:14:00.269 : en:01:14:00.269
01:23:28.337 : en:01:23:28.337
-

Скриншоты



Создавать темы 20-Окт-2015 11:25

[Профиль]  [ЛС] 

djek

Стаж: 5 лет 9 месяцев

Сообщений: 90

Симпатии: 4

ziyod, встань на раздачу .... сколько можно ждать будь добр !

Создавать темы 26-Ноя-2015 15:35

[Профиль]  [ЛС] 

ziyod ®

Стаж: 7 лет 6 месяцев

Сообщений: 367

Симпатии: 60

djek, я? а скачавшие? куда пропали? У них где желание делится?

Создавать темы 28-Ноя-2015 08:50

[Профиль]  [ЛС] 
Показать сообщения:    
Ответить на тему

Текущее время: 26-Сен 22:36

Часовой пояс: UTC + 5



Вы не можете начинать темы
Вы не можете отвечать на сообщения
Вы не можете редактировать свои сообщения
Вы не можете удалять свои сообщения
Вы не можете голосовать в опросах
Вы не можете прикреплять файлы к сообщениям
Вы не можете скачивать файлы