Рукопашный бой / Tapped Out (Аллан Ангар) [2014, Канада, Боевик, Драма, Спорт, HDRip] [Официальный]

Ответить на тему
 

ruhal ®

Стаж: 2 года 4 месяца

Сообщений: 1182

Симпатии: 1836

- -Рукопашный бой / Tapped Out- Страна: Канада
Жанр: Боевик, Драма, Спорт
Год выпуска: 2014
Продолжительность: 01:48:09-Перевод: Профессиональный (многоголосый закадровый) Официальный
Cубтитры: нет-Режиссер: Аллан Ангар-В ролях: Майкл Бин, Ник Бейтман, Мартин Коув, Кшиштоф Сошинский,
Андерсон Силва, Джесс Браун, Коуди Хэкмен, Лиото Мачида, Келли-Мари Мерта-Описание: Раздраженный подросток, посланный на общественную работу в школу Каратэ,
входит в турнир MMA, чтобы встретиться с человеком, который убил его родителей.-Качество видео: HDRip
Формат видео: AVI
Видео: Xvid 720x304 (240:101) 23.976fps
Аудио: Dolby AC3 48000Hz stereo 192kbps
-

MediaInfo

General
Complete name : E:\Films\Rykopashnyj.boj.2014.P.HDRip.1.46GB.avi
Format : AVI
Format/Info : Audio Video Interleave
File size : 1.46 GiB
Duration : 1h 48mn
Overall bit rate : 1 925 Kbps
Writing application : VirtualDubMod 1.5.10.2 (build 2540/release)
Writing library : VirtualDubMod build 2540/release
Video
ID : 0
Format : MPEG-4 Visual
Format profile : Advanced [email protected]
Format settings, BVOP : 3
Format settings, QPel : No
Format settings, GMC : No warppoints
Format settings, Matrix : Default (MPEG)
Codec ID : XVID
Codec ID/Hint : XviD
Duration : 1h 48mn
Bit rate : 1 723 Kbps
Width : 720 pixels
Height : 304 pixels
Display aspect ratio : 2.40:1
Original display aspect ratio : 2.35:1
Frame rate : 23.976 fps
Color space : YUV
Chroma subsampling : 4:2:0
Bit depth : 8 bits
Scan type : Progressive
Compression mode : Lossy
Bits/(Pixel*Frame) : 0.328
Stream size : 1.31 GiB (90%)
Writing library : XviD 64
Audio
ID : 1
Format : AC-3
Format/Info : Audio Coding 3
Mode extension : CM (complete main)
Format settings, Endianness : Big
Codec ID : 2000
Duration : 1h 48mn
Bit rate mode : Constant
Bit rate : 192 Kbps
Channel(s) : 2 channels
Channel positions : Front: L R
Sampling rate : 48.0 KHz
Compression mode : Lossy
Stream size : 149 MiB (10%)
Alignment : Split accross interleaves
Interleave, duration : 42 ms (1.00 video frame)
Interleave, preload duration : 500 ms

Скриншот c названием фильма

Скриншоты




Создавать темы 20-Окт-2015 13:36

[Профиль]  [ЛС] 
Показать сообщения:    
Ответить на тему

Текущее время: 20-Авг 06:54

Часовой пояс: UTC + 5



Вы не можете начинать темы
Вы не можете отвечать на сообщения
Вы не можете редактировать свои сообщения
Вы не можете удалять свои сообщения
Вы не можете голосовать в опросах
Вы не можете прикреплять файлы к сообщениям
Вы не можете скачивать файлы