Евгений Петросян. Когда финансы поют романсы. [2004 г., Юмор, DVDRip]

Ответить на тему
 

фазилов ®

Стаж: 3 года 7 месяцев

Сообщений: 310

Симпатии: 344

Евгений Петросян.
Когда финансы поют романсы
.

Год выпуска: 2004
Страна: Россия
Жанр: Юмор
Продолжительность: 01:36:54
Описание: Монологи, рассказы и фельетоны в исполнении
Евгения Вагановича Петросяна.
1. Непередаваемые ощущения (монолог)
2. Шпингалеты (рассказ)
3. Не помню (фельетон)
4. Обожаю рекламу (фельетон)
5. Жалко (фельетон)
6. А музыка звучит (фельетон)
7. Человек за бортом (монолог)
8. Япончик (монолог)


Качество: DVDRip
Формат: AVI
Видео кодек: XviD
Аудио кодек: AC3
Видео: 560x416 pix, MPEG-4 Visual, 25,000 кадров/сек,1822 Кбит/сек
Аудио: AC-3, 192 Кбит/сек, 48,0 КГц, 2 канала

Media-info

General
Complete name : D:\Мои релизы\Евгений Петросян. Когда финансы поют романсы.avi
Format : AVI
Format/Info : Audio Video Interleave
File size : 1.37 GiB
Duration : 1h 36mn
Overall bit rate : 2 021 Kbps
Writing application : VirtualDubMod 1.5.4.1 (build 2178/release)
Writing library : VirtualDubMod build 2178/release
Video
ID : 0
Format : MPEG-4 Visual
Format profile : Advanced [email protected]
Format settings, BVOP : 1
Format settings, QPel : No
Format settings, GMC : No warppoints
Format settings, Matrix : Custom
Codec ID : XVID
Codec ID/Hint : XviD
Duration : 1h 36mn
Bit rate : 1 822 Kbps
Width : 560 pixels
Height : 416 pixels
Display aspect ratio : 4:3
Frame rate : 25.000 fps
Color space : YUV
Chroma subsampling : 4:2:0
Bit depth : 8 bits
Scan type : Progressive
Compression mode : Lossy
Bits/(Pixel*Frame) : 0.313
Stream size : 1.23 GiB (90%)
Writing library : XviD 64
Audio
ID : 1
Format : AC-3
Format/Info : Audio Coding 3
Mode extension : CM (complete main)
Format settings, Endianness : Big
Codec ID : 2000
Duration : 1h 36mn
Bit rate mode : Constant
Bit rate : 192 Kbps
Channel(s) : 2 channels
Channel positions : Front: L R
Sampling rate : 48.0 KHz
Bit depth : 16 bits
Compression mode : Lossy
Stream size : 133 MiB (10%)
Alignment : Split accross interleaves
Interleave, duration : 96 ms (2.40 video frames)
Interleave, preload duration : 96 ms

Скриншоты





Последний раз редактировалось: фазилов (2015-10-20 17:57), всего редактировалось 2 раз(а)

Создавать темы 20-Окт-2015 17:47

[Профиль]  [ЛС] 

фазилов ®

Стаж: 3 года 7 месяцев

Сообщений: 310

Симпатии: 344

Возможны перерывы в раздаче в связи с частыми отключениями злектроэнергии! aq

Создавать темы 20-Окт-2015 17:54

[Профиль]  [ЛС] 
Показать сообщения:    
Ответить на тему

Текущее время: 23-Сен 00:00

Часовой пояс: UTC + 5



Вы не можете начинать темы
Вы не можете отвечать на сообщения
Вы не можете редактировать свои сообщения
Вы не можете удалять свои сообщения
Вы не можете голосовать в опросах
Вы не можете прикреплять файлы к сообщениям
Вы не можете скачивать файлы