Формула 51 / The 51st State (Ронни Ю / Ronny Yu) [2001, Канада, Великобритания, триллер, комедия, криминал, DVDRip] (Dub)

Ответить на тему
 

ladysco ®

Стаж: 5 лет 4 месяца

Сообщений: 40

Симпатии: 56

Формула 51 / The 51st State
Страна: Канада, Великобритания
Жанр: триллер, комедия, криминал
Год выпуска: 2001
Продолжительность: 01:32:39
Перевод: Профессиональный (дублированный)
Режиссер: Ронни Ю / Ronny Yu
В ролях: Сэмюэл Л. Джексон, Найджел Уитми, Роберт Йезек, Эмили Мортимер, Мит Лоуф, Джэйк Абрахам, Мак МакДональд, Аарон Шварц, Дэвид Веббер, Майкл Дж. Рейнольдс
Описание: Химик-фармацевт МакЭлрой изобрел новый супернаркотик и решил сорвать большой куш. Чтобы осуществить задуманное, он отправляется в Ливерпуль. Его босс Ящер приказывает своей помощнице Дакоте убить МакЭлроя.
Дакота хорошо знает Ливерпуль — родной город ее бывшего бойфренда Феликса ДеСоуза, невольного партнера МакЭлроя. А Ливерпуль уже «стоит на ушах». И хозяин ночного клуба Айки, и офицер полиции Кэйн, и мелкие гангстеры, и скинхеды — все хотят отщипнуть кусочек от бизнеса с чудо-наркотиком. А тем временем МакЭлрой и Феликс упорно ищут покупателя, готового отстегнуть им 20 миллионов. Но не предаст ли МакЭлроя Феликс?
Все станет известно на главном футбольном матче года. Мы узнаем, кто кого подставил. Кому достался наркотик. Кого разорвало на миллионы кусочков. И кто сбежал в шотландский замок стоимостью в миллионы долларов…
Качество видео: DVDRip
Формат видео: AVI
Видео: XviD, 704x400, 23,976 fps, 2050 kbps, 0.304 bit/pixel
Аудио: AC3, 48 kHz, 2 ch, 192 kbps

MediaInfo

Format : AVI
Format/Info : Audio Video Interleave
File size : 1.46 GiB
Duration : 1h 32mn
Overall bit rate : 2 251 Kbps
Writing application : VirtualDubMod 1.5.10.3 | www.virtualdub-fr.org || (build 2550/release)
Writing library : VirtualDubMod build 2550/release
Video
ID : 0
Format : MPEG-4 Visual
Format profile : Advanced [email protected]
Format settings, BVOP : 2
Format settings, QPel : No
Format settings, GMC : No warppoints
Format settings, Matrix : Custom
Codec ID : XVID
Codec ID/Hint : XviD
Duration : 1h 32mn
Bit rate : 2 050 Kbps
Width : 704 pixels
Height : 400 pixels
Display aspect ratio : 16:9
Frame rate : 23.976 fps
Color space : YUV
Chroma subsampling : 4:2:0
Bit depth : 8 bits
Scan type : Progressive
Compression mode : Lossy
Bits/(Pixel*Frame) : 0.304
Stream size : 1.33 GiB (91%)
Writing library : XviD 1.2.1 (UTC 2008-12-04)
Audio
ID : 1
Format : AC-3
Format/Info : Audio Coding 3
Mode extension : CM (complete main)
Format settings, Endianness : Big
Codec ID : 2000
Duration : 1h 32mn
Bit rate mode : Constant
Bit rate : 192 Kbps
Channel(s) : 2 channels
Channel positions : Front: L R
Sampling rate : 48.0 KHz
Bit depth : 16 bits
Compression mode : Lossy
Stream size : 127 MiB (9%)
Alignment : Split accross interleaves
Interleave, duration : 42 ms (1.00 video frame)
Interleave, preload duratio : 500 ms

Скриншоты

Создавать темы 20-Окт-2015 20:08

[Профиль]  [ЛС] 

Вован

Стаж: 5 лет 9 месяцев

Сообщений: 85

Симпатии: 4

Ynwa. Спасибо за релиз

Создавать темы 22-Окт-2015 23:55

[Профиль]  [ЛС] 

SkoroXod

Стаж: 2 года 2 месяца

Сообщений: 99

Симпатии: 78

Спасибо! Хороший фильм.

Создавать темы 07-Ноя-2015 19:50

[Профиль]  [ЛС] 
Показать сообщения:    
Ответить на тему

Текущее время: 20-Ноя 05:29

Часовой пояс: UTC + 5



Вы не можете начинать темы
Вы не можете отвечать на сообщения
Вы не можете редактировать свои сообщения
Вы не можете удалять свои сообщения
Вы не можете голосовать в опросах
Вы не можете прикреплять файлы к сообщениям
Вы не можете скачивать файлы