Окрыленные / Сезон: 1 / Серии: 20 из 20 (Анна Писаненко) [2015, драма, комедия, SATRip]

Ответить на тему
 

Sunnat1999 ®

Стаж: 4 года 5 месяцев

Сообщений: 756

Симпатии: 416

ОкрыленныеСерии: 1-20 из 20-- Год выпуска: 2015
Производство: Россия
Жанр: драма, комедия
Продолжительность: ~00:43:00 серия
Субтитры: нет-Режиссёр: Анна Писаненко-В ролях: Серафима Низовская, Александр Егоров, Егор Кутенков, Александр Ведменский, Степан Девонин, Ольга Лукьяненко, Юлия Маргулис, Олеся Гаевая, Мария Табак, Евгений Чупин-Описание: Сериал о команде бортпроводников и их коллег-пилотов из авиакомпании "Ю-Лайт". Члены экипажа "Юлы", как они ее сами называют, используют любую возможность хорошо оторваться, устроить розыгрыш или закатить скандал. Они - молодые, красивые и "окрылённые" своей профессией. Пассажиры видят их на борту неизменно улыбающимися, уверенными и безупречными. Но, как и обычные земные люди, бортпроводники и пилоты тоже влюбляются и разбивают сердца, ссорятся и мирятся, смеются и плачут. Скоро все узнают, что люди из авиации делают не только в небе, но и на земле.-Доп. информация:
 

-Качество: SATRip
Формат: AVI
Видео кодек: XviD
Аудио кодек: MP3
Видео: XviD, ~ 1800 Кбит/с, 704x368
Аудио: MP3, 2 ch, 128 Кбит/с

MI

General
Complete name : \Okrylennye.2015\01.serija.avi
Format : AVI
Format/Info : Audio Video Interleave
File size : 558 MiB
Duration : 40mn 16s
Overall bit rate : 1 938 Kbps
Writing application : VirtualDubMod 1.5.10.3 | www.virtualdub-fr.org || (build 2550/release)
Writing library : VirtualDubMod build 2550/release
Video
ID : 0
Format : MPEG-4 Visual
Format profile : Advanced [email protected]
Format settings, BVOP : 2
Format settings, QPel : No
Format settings, GMC : No warppoints
Format settings, Matrix : Default (MPEG)
Codec ID : XVID
Codec ID/Hint : XviD
Duration : 40mn 16s
Bit rate : 1 800 Kbps
Width : 704 pixels
Height : 368 pixels
Display aspect ratio : 1.913
Frame rate : 25.000 fps
Color space : YUV
Chroma subsampling : 4:2:0
Bit depth : 8 bits
Scan type : Progressive
Compression mode : Lossy
Bits/(Pixel*Frame) : 0.278
Stream size : 519 MiB (93%)
Writing library : XviD 1.2.1 (UTC 2008-12-04)
Audio
ID : 1
Format : MPEG Audio
Format version : Version 1
Format profile : Layer 3
Codec ID : 55
Codec ID/Hint : MP3
Duration : 40mn 16s
Bit rate mode : Constant
Bit rate : 128 Kbps
Channel(s) : 2 channels
Sampling rate : 48.0 KHz
Compression mode : Lossy
Stream size : 36.9 MiB (7%)
Alignment : Aligned on interleaves
Interleave, duration : 40 ms (1.00 video frame)
Interleave, preload duratio : 504 ms
Writing library : LAME3.99r
Encoding settings : -m s -V 4 -q 2 -lowpass 17 -b 128
Скриншоты


Последний раз редактировалось: Sunnat1999 (2015-11-16 23:00), всего редактировалось 2 раз(а)

Создавать темы 21-Окт-2015 17:36

[Профиль]  [ЛС] 
Показать сообщения:    
Ответить на тему

Текущее время: 22-Авг 06:38

Часовой пояс: UTC + 5



Вы не можете начинать темы
Вы не можете отвечать на сообщения
Вы не можете редактировать свои сообщения
Вы не можете удалять свои сообщения
Вы не можете голосовать в опросах
Вы не можете прикреплять файлы к сообщениям
Вы не можете скачивать файлы