Отпуск по ранению / Сезон: 1 / Серии: 4 из 4 (Кирилл Капица) [2014, Драма, боевик, криминал, SATRip]

Ответить на тему
 

Sunnat1999 ®

Стаж: 4 года 5 месяцев

Сообщений: 756

Симпатии: 416

Отпуск по ранениюСерии: 1-4 из 4-- Год выпуска: 2014
Производство: Россия, Украина, StarMedia
Жанр: Драма, боевик, криминал
Продолжительность: ~00:44:00 серия
Субтитры: нет-Режиссёр: Кирилл Капица-В ролях: Игорь Лифанов, Ирина Сотикова, Александра Никифорова, Алексей Федотов, Юлия Зоркина, Сергей Мурзин, Игорь Ключников, Сергей Воробьёв (IV), Андрей Бабенко, Михаил Сливников, Евгений Курилкин, Дмитрий Александров (III), Валерий Ибрагимов, Геша Меньшиков, Руслан Нанава, Оксана Базилевич, Леонид Майзель, Илья Савельев, Юрий Агейкин-Описание: В результате успешной операции по освобождению заложников командир спецподразделения Артем Говоров ранен. Он прошел курс лечения в госпитале, и теперь едет в положенный ему отпуск по ранению на 10 суток, на родину. Там, в провинциальном приморском городке живет его единственный родственник - двоюродный брат Николай, директор местной школы. За время отпуска Артем знакомится с соседкой Светланой и помогает ей в быту. А в день отъезда майора обратно к месту службы Светлана рассказывает о проблеме – ее дочь Вика не вернулась домой на ночь. Казалось бы, с молодыми такое случается, но Светлана не на шутку встревожена и предчувствует беду. Говоров предлагает новой знакомой помощь, задерживается в городке, и как оказывается, не зря. Вика стала свидетелем криминальной потасовки, и теперь ей угрожает большая опасность.-Качество: SATRip
Формат: AVI
Видео кодек: XviD
Аудио кодек: MP3
Видео: XviD, ~ 1810 Кбит/с, 720x400
Аудио: MP3, 2 ch, 128 Кбит/с

MI

Общее
Полное имя : \Отпуск по ранению\1 серия.avi
Формат : AVI
Формат/Информация : Audio Video Interleave
Размер файла : 612 Мбайт
Продолжительность : 43 м.
Общий поток : 1944 Кбит/сек
Программа кодирования : VirtualDubMod 1.5.10.3 (build 2550/release)
Библиотека кодирования : VirtualDubMod build 2550/release
Видео
Идентификатор : 0
Формат : MPEG-4 Visual
Профиль формата : Advanced [email protected]
Параметр BVOP формата : 2
Параметр QPel формата : Нет
Параметр GMC формата : Без точки перехода
Параметр матрицы формата : Default (MPEG)
Идентификатор кодека : XVID
Идентификатор кодека/Подсказка : XviD
Продолжительность : 43 м.
Битрейт : 1807 Кбит/сек
Ширина : 720 пикселей
Высота : 400 пикселей
Соотношение сторон : 16:9
Частота кадров : 25,000 кадров/сек
Цветовое пространство : YUV
Субдискретизация насыщенности : 4:2:0
Битовая глубина : 8 бит
Тип развёртки : Прогрессивная
Метод сжатия : С потерями
Бит/(Пиксели*Кадры) : 0.251
Размер потока : 568 Мбайт (93%)
Библиотека кодирования : XviD 73
Аудио
Идентификатор : 1
Формат : MPEG Audio
Версия формата : Version 1
Профиль формата : Layer 3
Режим : Joint stereo
Расширение режима : MS Stereo
Идентификатор кодека : 55
Идентификатор кодека/Подсказка : MP3
Продолжительность : 43 м.
Вид битрейта : Постоянный
Битрейт : 128 Кбит/сек
Каналы : 2 канала
Частота : 48,0 КГц
Метод сжатия : С потерями
Размер потока : 40,3 Мбайт (7%)
Выравнивание : Разделение по промежуткам
Продолжительность промежутка : 40 мс. (1,00 видеокадр)
Время предзагрузки промежутка : 500 мс.
Скриншоты:

Создавать темы 21-Окт-2015 19:44

[Профиль]  [ЛС] 
Показать сообщения:    
Ответить на тему

Текущее время: 21-Авг 19:02

Часовой пояс: UTC + 5



Вы не можете начинать темы
Вы не можете отвечать на сообщения
Вы не можете редактировать свои сообщения
Вы не можете удалять свои сообщения
Вы не можете голосовать в опросах
Вы не можете прикреплять файлы к сообщениям
Вы не можете скачивать файлы