Макс / Max (Боаз Якин) [2015, США, Семейный,Приключения, HDRip] (Dub)

Ответить на тему
 

Hurracan ®

Стаж: 2 года

Сообщений: 79

Симпатии: 80

Макс / Max
Страна: США
Жанр: Семейный,Приключения
Год выпуска: 2015
Продолжительность: 01:50:58
Перевод: Профессиональный (дублированный)
Cубтитры: нет
Режиссер: Боаз Якин
В ролях: Джозеф Джулиан Сория, Лорен Грэм, Робби Амелл, Томас Хейден Чёрч, Джей Эрнандес, Джош Уиггинс, Люк Клеинтенк, Оуэн Харн
Описание: История о собаке, которая помогала солдатам в Афганистане. После трагического происшествия собаку забирает к себе домой семья ответственного за нее солдата.
Доп. информация: Бюджет: $20 000 000
Рейтинг КиноПоиск.Ru: 6.874 (1091)
Рейтинг IMDb: 6.9 (8692)
Качество видео: HDRip
Формат видео: AVI
Видео: Xvid 720x304 23.976fps 1491kbps
Аудио: Dolby AC3 48000Hz 6ch 384kbps

MediaInfo

General
Complete name : C:\Users\Hurracan\Downloads\Video\Maks.2015.P.HDRip.1.46GB.avi
Format : AVI
Format/Info : Audio Video Interleave
File size : 1.46 GiB
Duration : 1h 50mn
Overall bit rate : 1 885 Kbps
Writing application : VirtualDubMod 1.5.10.2 (build 2540/release)
Writing library : VirtualDubMod build 2540/release
Video
ID : 0
Format : MPEG-4 Visual
Format profile : Advanced [email protected]
Format settings, BVOP : 2
Format settings, QPel : No
Format settings, GMC : No warppoints
Format settings, Matrix : Default (MPEG)
Codec ID : XVID
Codec ID/Hint : XviD
Duration : 1h 50mn
Bit rate : 1 492 Kbps
Width : 720 pixels
Height : 304 pixels
Display aspect ratio : 2.35:1
Frame rate : 23.976 fps
Color space : YUV
Chroma subsampling : 4:2:0
Bit depth : 8 bits
Scan type : Progressive
Compression mode : Lossy
Bits/(Pixel*Frame) : 0.284
Stream size : 1.16 GiB (79%)
Writing library : XviD 1.2.1 (UTC 2008-12-04)
Audio
ID : 1
Format : AC-3
Format/Info : Audio Coding 3
Mode extension : CM (complete main)
Format settings, Endianness : Big
Codec ID : 2000
Duration : 1h 50mn
Bit rate mode : Constant
Bit rate : 384 Kbps
Channel(s) : 6 channels
Channel positions : Front: L C R, Side: L R, LFE
Sampling rate : 48.0 KHz
Compression mode : Lossy
Stream size : 305 MiB (20%)
Alignment : Split accross interleaves
Interleave, duration : 42 ms (1.00 video frame)
Interleave, preload duration : 500 ms

Скриншоты



Создавать темы 22-Окт-2015 00:27

[Профиль]  [ЛС] 
Показать сообщения:    
Ответить на тему

Текущее время: 22-Сен 20:27

Часовой пояс: UTC + 5



Вы не можете начинать темы
Вы не можете отвечать на сообщения
Вы не можете редактировать свои сообщения
Вы не можете удалять свои сообщения
Вы не можете голосовать в опросах
Вы не можете прикреплять файлы к сообщениям
Вы не можете скачивать файлы