Heavy Object / Тяжёлый объект [TV] [3 из 24] [HDTVRip 720p] [Ватанабэ Такаси] [2015, Приключения, фантастика ] (Kansai)

Ответить на тему
 

FireHowler ®

Стаж: 4 года 3 месяца

Сообщений: 270

Симпатии: 153

Heavy Object / Тяжёлый объект
TV-1 / Серии 3 из 24-Год выпуска: 2015
Страна: Япония
Жанр: приключения, фантастика
Продолжительность: ~25:00:00
Режиссер: Ватанабэ Такаси
Студия: J.C. Staff-Перевод: Любительский (многоголосый, закадровый) (Kansai)
-Описание: Главный герой - парень по имени Квенсер, живущий в эпоху невероятного технического прогресса и мечтающий стать проектировщиком «объектов» — огромных боевых машин, способных в одиночку уничтожать целые армии. Эти самые машины совершили настоящий прорыв в военном деле. Такой военной мощи человечество ранее ещё не встречало.
Дабы изучить «объекты», Квенсер решает отправиться на военную базу Аляски. Однако не всё так гладко, как хотелось бы. После встречи с Милиндой, элитным пилотом одного из «объектов», нашему герою открывается мрачная правда об этих угрюмых стальных монстрах и их пилотах. Что же будет ждать его там? Кто его встретит? Холод и гнев бездушных машин? Или лишь шелест ветра и ничего более..?
-Качество: HDTVRip
Формат: AVC
Видео кодек: x264
Аудио кодек: AAC
Видео: ~ 3 300 Кбит/сек 1280x720 (16:9)(8bit)
Аудио RUS: 229 Kbps, 2 ch | Озвучка: Многоголосая, закадровая

Media Info

Video
ID : 1
Format : AVC
Format/Info : Advanced Video Codec
Format profile : [email protected]
Format settings, CABAC : Yes
Format settings, ReFrames : 4 frames
Codec ID : avc1
Codec ID/Info : Advanced Video Coding
Duration : 23mn 59s
Bit rate : 3 288 Kbps
Maximum bit rate : 18.5 Mbps
Width : 1 280 pixels
Height : 720 pixels
Display aspect ratio : 16:9
Frame rate mode : Constant
Frame rate : 23.976 fps
Color space : YUV
Chroma subsampling : 4:2:0
Bit depth : 8 bits
Scan type : Progressive
Bits/(Pixel*Frame) : 0.149
Stream size : 564 MiB (94%)
Title : 264
Writing library : x264 core 129 r2245+729M 1a52e03
Encoding settings : cabac=1 / ref=4 / deblock=1:1:-1 / analyse=0x3:0x113 / me=umh / subme=9 / psy=1 / fade_compensate=0.00 / psy_rd=1.00:0.00 / mixed_ref=1 / me_range=24 / chroma_me=1 / trellis=2 / 8x8dct=1 / cqm=0 / deadzone=21,11 / fast_pskip=1 / chroma_qp_offset=-2 / threads=8 / lookahead_threads=1 / sliced_threads=0 / nr=0 / decimate=1 / interlaced=0 / bluray_compat=0 / constrained_intra=0 / fgo=0 / bframes=9 / b_pyramid=2 / b_adapt=2 / b_bias=0 / direct=1 / weightb=1 / open_gop=0 / weightp=2 / keyint=240 / keyint_min=24 / scenecut=40 / intra_refresh=0 / rc=crf / mbtree=0 / crf=18.5 / qcomp=0.72 / qpmin=0 / qpmax=69 / qpstep=4 / ip_ratio=1.40 / pb_ratio=1.30 / aq=1:0.85
Encoded date : UTC 2015-10-02 19:04:01
Tagged date : UTC 2015-10-04 17:00:51
Color range : Limited
Color primaries : BT.709
Transfer characteristics : BT.709
Matrix coefficients : BT.709
Audio
ID : 2
Format : AAC
Format/Info : Advanced Audio Codec
Format profile : LC
Codec ID : 40
Duration : 23mn 59s
Bit rate mode : Variable
Bit rate : 224 Kbps
Maximum bit rate : 229 Kbps
Channel(s) : 2 channels
Channel positions : Front: L R
Sampling rate : 48.0 KHz
Compression mode : Lossy
Stream size : 38.4 MiB (6%)
Title : Kansai
Language : Russian
Encoded date : UTC 2015-10-04 17:00:51
Tagged date : UTC 2015-10-04 17:00:51

Скриншоты





Последний раз редактировалось: FireHowler (2016-02-05 13:15), всего редактировалось 2 раз(а)

Создавать темы 23-Окт-2015 01:00

[Профиль]  [ЛС] 
Показать сообщения:    
Ответить на тему

Текущее время: 22-Авг 23:53

Часовой пояс: UTC + 5



Вы не можете начинать темы
Вы не можете отвечать на сообщения
Вы не можете редактировать свои сообщения
Вы не можете удалять свои сообщения
Вы не можете голосовать в опросах
Вы не можете прикреплять файлы к сообщениям
Вы не можете скачивать файлы