Цена человека / Il capitale umano (Паоло Вирдзи) [2013, Италия,Франция, Драма, HDRip] (Dub)

Ответить на тему
 

Hurracan ®

Стаж: 2 года 1 месяц

Сообщений: 79

Симпатии: 80

Цена человека / Il capitale umano
Страна: Италия,Франция
Жанр: Драма
Год выпуска: 2013
Продолжительность: 01:50:48
Перевод: Профессиональный (дублированный)
Cубтитры: нет
Режиссер: Паоло Вирдзи
В ролях: Валерия Голино, Джиджио Алберти, Валерия Бруни-Тедески, Фабрицио Бентивольо, Матильда Джоли, Гульельмо Пинелли, Фабрицио Джифуни, Сильвия Коэн, Луиджи Ло Кашио, Бебо Сторти
Описание: Озеро Комо, Италия. Велосипедист был сбит джипом в ночь перед Сочельником. Что произошло в ту ночь? Как изменит эта авария судьбы богатой семьи Бернаски и находящейся на грани банкротства семьи Ровелли?
Доп. информация: Бюджет: €6 000 000
Рейтинг КиноПоиск.Ru: 6.939 (592)
Рейтинг IMDb: 7.3 (5697)
Качество видео: HDRip
Формат видео: AVI
Видео: Xvid 720x304 23.976fps 1485kbps
Аудио: Dolby AC3 48000Hz 6ch 384kbps

MediaInfo

General
Complete name : C:\Users\Hurracan\Downloads\Video\T7eNa.4eL0vEka.2015.P.HDRip.1.45GB.avi
Format : AVI
Format/Info : Audio Video Interleave
File size : 1.45 GiB
Duration : 1h 50mn
Overall bit rate : 1 879 Kbps
Writing application : VirtualDubMod 1.5.10.3 | www.virtualdub-fr.org || (build 2550/release)
Writing library : VirtualDubMod build 2550/release
Video
ID : 0
Format : MPEG-4 Visual
Format profile : Advanced [email protected]
Format settings, BVOP : 2
Format settings, QPel : No
Format settings, GMC : No warppoints
Format settings, Matrix : Default (MPEG)
Codec ID : XVID
Codec ID/Hint : XviD
Duration : 1h 50mn
Bit rate : 1 486 Kbps
Width : 720 pixels
Height : 304 pixels
Display aspect ratio : 2.35:1
Frame rate : 23.976 fps
Color space : YUV
Chroma subsampling : 4:2:0
Bit depth : 8 bits
Scan type : Progressive
Compression mode : Lossy
Bits/(Pixel*Frame) : 0.283
Stream size : 1.15 GiB (79%)
Writing library : XviD 1.2.1 (UTC 2008-12-04)
Audio
ID : 1
Format : AC-3
Format/Info : Audio Coding 3
Mode extension : CM (complete main)
Format settings, Endianness : Big
Codec ID : 2000
Duration : 1h 50mn
Bit rate mode : Constant
Bit rate : 384 Kbps
Channel(s) : 6 channels
Channel positions : Front: L C R, Side: L R, LFE
Sampling rate : 48.0 KHz
Compression mode : Lossy
Stream size : 304 MiB (20%)
Alignment : Split accross interleaves
Interleave, duration : 42 ms (1.00 video frame)
Interleave, preload duration : 500 ms

Скриншоты



Создавать темы 23-Окт-2015 14:32

[Профиль]  [ЛС] 

Топик был перенесен из форума Фильмы за 2015 в форум Фильмы за 2010-2013
Grock

Создавать темы 23-Окт-2015 14:54

 

Grock

Стаж: 6 лет 9 месяцев

Сообщений: 637

Симпатии: 113

Hurracan, Фильм 2013 года, перенес в соответствующий раздел. В названии фильма стоит "2015" - Не критично.

Создавать темы 23-Окт-2015 14:59

[Профиль]  [ЛС] 

Hurracan ®

Стаж: 2 года 1 месяц

Сообщений: 79

Симпатии: 80

Понятно

Создавать темы 23-Окт-2015 16:31

[Профиль]  [ЛС] 
Показать сообщения:    
Ответить на тему

Текущее время: 21-Ноя 01:49

Часовой пояс: UTC + 5



Вы не можете начинать темы
Вы не можете отвечать на сообщения
Вы не можете редактировать свои сообщения
Вы не можете удалять свои сообщения
Вы не можете голосовать в опросах
Вы не можете прикреплять файлы к сообщениям
Вы не можете скачивать файлы