Ускорение / Momentum (Стивен С. Кампанелли) [2015, ЮАР, США, Боевик, триллер] [WEB-DLRip]

Ответить на тему
 

Шаман ®

Стаж: 2 года 1 месяц

Сообщений: 10

Симпатии: 35

Ускорение / Momentum / WEB-DLRip
Страна: ЮАР, США
Жанр: Боевик, триллер
Год выпуска: 2015
Продолжительность: 01:35:56
Перевод: Профессиональный (дублированный)
Cубтитры: нет
Режиссер: Стивен С. Кампанелли
В ролях: Ольга Куриленко, Морган Фриман, Джеймс Пьюрфой, Дженна Сарас, Сабина Палфи, Карл Танинг, Ли-Энн Саммерс, Эйдан Уайток, Мэриэн Фризелл, Грег Крик
Описание: Алекс, опытная воровка, соглашается совершить свое последнее ограбление… Но все идет не по плану. Теперь ей — красивой, сильной и безжалостной femme fatale — угрожает опасность. И неудачное ограбление — не единственная проблема. Она перешла дорогу секретному международному синдикату, который ищет нечто более ценное, чем бриллианты. С этого момента для Алекс единственный способ спастись — бежать. И как можно быстрее
Доп. информация: Дата мировой премьеры: 22 Июля 2015
Дата премьеры в России: 23 Июля 2015
IMDB рейтинг: 5.5/10 (978 голоса)
КиноПоиск рейтинг: 5.121 (824 голосов)
Качество видео: WEB-DLRip
Формат видео: AVI
Видео: XVID 720x304 23.98fps 1969Kbps
Аудио: Dolby AC3 48000Hz stereo 192Kbps

MediaInfo

General
Complete name : Yck0PeHye.2015.D.WEB-DLRip.avi
Format : AVI
Format/Info : Audio Video Interleave
File size : 1.46 GiB
Duration : 1h 35mn
Overall bit rate : 2 171 Kbps
Writing application : VirtualDubMod 1.5.10.3 | www.virtualdub-fr.org || (build 2550/release)
Writing library : VirtualDubMod build 2550/release
Video #0
ID : 0
Format : MPEG-4 Visual
Format profile : Advanced [email protected]
Format settings, BVOP : 2
Format settings, QPel : No
Format settings, GMC : No warppoints
Format settings, Matrix : Default (MPEG)
Codec ID : XVID
Codec ID/Hint : XviD
Duration : 1h 35mn
Bit rate : 1 970 Kbps
Width : 720 pixels
Height : 304 pixels
Display aspect ratio : 2.35:1
Frame rate : 23.976 fps
Color space : YUV
Chroma subsampling : 4:2:0
Bit depth : 8 bits
Scan type : Progressive
Compression mode : Lossy
Bits/(Pixel*Frame) : 0.375
Stream size : 1.32 GiB (91%)
Writing library : XviD 1.2.1 (UTC 2008-12-04)
Audio #1
ID : 1
Format : AC-3
Format/Info : Audio Coding 3
Mode extension : CM (complete main)
Format settings, Endianness : Big
Codec ID : 2000
Duration : 1h 35mn
Bit rate mode : Constant
Bit rate : 192 Kbps
Channel(s) : 2 channels
Channel positions : Front: L R
Sampling rate : 48.0 KHz
Bit depth : 16 bits
Compression mode : Lossy
Stream size : 132 MiB (9%)
Alignment : Split accross interleaves
Interleave, duration : 42 ms (1.00 video frame)
Interleave, preload duration : 500 ms

Скриншот c названием фильма

Скриншоты



Создавать темы 24-Окт-2015 10:51

[Профиль]  [ЛС] 

amirNim

Стаж: 6 лет 1 месяц

Сообщений: 20

Симпатии: 2

непонятный какой то фильм, ни идеей ни смыслом не выделяется, фильм - болтовня. очень понравится тем кто любит ругать главного героя, мол да сделай так, да сделай вот так, много абсурдных моментов. Аж к концу фильма хочется что бы главную героиню пришили к чертовой матери, фуууу еле досмотрел

Создавать темы 02-Ноя-2015 20:09

[Профиль]  [ЛС] 
Показать сообщения:    
Ответить на тему

Текущее время: 19-Ноя 08:04

Часовой пояс: UTC + 5



Вы не можете начинать темы
Вы не можете отвечать на сообщения
Вы не можете редактировать свои сообщения
Вы не можете удалять свои сообщения
Вы не можете голосовать в опросах
Вы не можете прикреплять файлы к сообщениям
Вы не можете скачивать файлы