Паук (Гознак) / Серии: 1-8 из 8 (Евгений Звездаков) [2015, детектив, криминальный фильм,, SATRip-AVC]

Ответить на тему
 

Mamutov ®

Стаж: 4 года 8 месяцев

Сообщений: 255

Симпатии: 144

---Паук (Гознак)

-Год выпуска: 2015
Производство: Красный квадрат, Студия Русски
Жанр: детектив, криминальный фильм,
Продолжительность: 00:51:00
Субтитры: нет-Режиссёр: Евгений Звездаков-В ролях: Андрей Смоляков, Марина Александрова, Владимир Юматов, Мария Андреева, Сергей Угрюмов, Сергей Годин, Марк Богатырёв, Каролина Грушка, Родион Нахапетов, Андрис Лиелайс, Юрий Тарасов, Вадим Андреев, Алексей Бардуков, Юрий Чурсин, Даниэла Стоянович, Александр Дробитько, Константин Демидов (II), Дмитрий Астрахан, Екатерина Волкова, Софья Синицына, Иван Волков, Светлана Мамрешева, Игорь Филиппов, Елизавета Зарубина, Анна Легчилова, Анастасия Шалонько, Анастасия Фурса-Описание: Третий фильм проекта об опергруппе Черкасова - «Гознак».
По мотивам еще одной знаменитой истории - ограблении Госбанка Армянской ССР в 1977 году, когда братья Калачян обнесли казну на полтора миллиона рублей (два миллиона долларов по тогдашнему курсу). Это было самое крупное похищение в Советском Союзе.
1967 год. Москва. Убита манекенщица из Дома моды. На место преступления приезжает группа майора Черкасова. Он срочным порядком внедряет в Дом моды своего человека – Соню Тимофееву, главной задачей которой является получение информации об отношениях между работниками Домы моды. Вскоре погибает еще одна манекенщица. И одновременно с этим убийством происходит очень дерзкое преступление -
-Качество: SATRip
Формат: MKV
Видео кодек: H.264
Аудио кодек: AC3
Видео: MPEG4 Video (H264), 720x400, 25fps,1645 Kbps,bit/pixel 0.193
Аудио: AC3 48000Hz, stereo, 256 kbps,2 ch
- ---

MI

Общее
Уникальный идентификатор : 255035888404393779245069042941228231154 (0xBFDE201CA6080DDE9B970E025EBC29F2)
Полное имя : G:\Паук(Гознак)\01 серия.mkv
Формат : Matroska
Версия формата : Version 2
Размер файла : 600 Мбайт
Продолжительность : 51 м.
Общий поток : 1645 Кбит/сек
Дата кодирования : UTC 2015-10-19 16:33:29
Программа кодирования : mkvmerge v7.8.0 ('River Man') 32bit built on Apr 3 2015 12:11:22
Библиотека кодирования : libebml v1.3.1 + libmatroska v1.4.2
Видео
Идентификатор : 1
Формат : AVC
Формат/Информация : Advanced Video Codec
Профиль формата : [email protected]
Параметр CABAC формата : Да
Параметр ReFrames формата : 9 кадров
Идентификатор кодека : V_MPEG4/ISO/AVC
Продолжительность : 51 м.
Битрейт : 1387 Кбит/сек
Ширина : 720 пикселей
Высота : 400 пикселей
Соотношение сторон : 16:9
Режим частоты кадров : Постоянный
Частота кадров : 25,000 кадров/сек
Цветовое пространство : YUV
Субдискретизация насыщенности : 4:2:0
Битовая глубина : 8 бит
Тип развёртки : Прогрессивная
Бит/(Пиксели*Кадры) : 0.193
Размер потока : 495 Мбайт (82%)
Библиотека кодирования : x264 core 146 r2538 121396c
Настройки программы : cabac=1 / ref=9 / deblock=1:-3:-3 / analyse=0x3:0x133 / me=umh / subme=9 / psy=1 / psy_rd=1.00:0.00 / mixed_ref=0 / me_range=32 / chroma_me=1 / trellis=2 / 8x8dct=1 / cqm=0 / deadzone=21,11 / fast_pskip=1 / chroma_qp_offset=-2 / threads=2 / lookahead_threads=4 / sliced_threads=0 / nr=0 / decimate=1 / interlaced=0 / bluray_compat=0 / constrained_intra=0 / bframes=9 / b_pyramid=2 / b_adapt=2 / b_bias=0 / direct=3 / weightb=1 / open_gop=0 / weightp=2 / keyint=240 / keyint_min=24 / scenecut=40 / intra_refresh=0 / rc_lookahead=40 / rc=2pass / mbtree=1 / bitrate=1387 / ratetol=1.0 / qcomp=0.60 / qpmin=0 / qpmax=69 / qpstep=4 / cplxblur=20.0 / qblur=0.5 / ip_ratio=1.40 / aq=1:1.00
Default : Да
Forced : Нет
Цветовой диапазон : Limited
Основные цвета : BT.601 PAL
Характеристики трансфера : BT.470 System B, BT.470 System G
Коэффициенты матрицы : BT.601
Аудио
Идентификатор : 2
Формат : AC-3
Формат/Информация : Audio Coding 3
Расширение режима : CM (complete main)
Параметр Endianness формата : Big
Идентификатор кодека : A_AC3
Продолжительность : 51 м.
Вид битрейта : Постоянный
Битрейт : 256 Кбит/сек
Каналы : 2 канала
Расположение каналов : Front: L R
Частота : 48,0 КГц
Метод сжатия : С потерями
Размер потока : 93,5 Мбайт (16%)
Default : Да
Forced : Нет

Скриншоты





Последний раз редактировалось: Mamutov (2015-11-16 22:59), всего редактировалось 2 раз(а)

Создавать темы 26-Окт-2015 08:30

[Профиль]  [ЛС] 
Показать сообщения:    
Ответить на тему

Текущее время: 24-Сен 06:28

Часовой пояс: UTC + 5



Вы не можете начинать темы
Вы не можете отвечать на сообщения
Вы не можете редактировать свои сообщения
Вы не можете удалять свои сообщения
Вы не можете голосовать в опросах
Вы не можете прикреплять файлы к сообщениям
Вы не можете скачивать файлы