Демоны да Винчи / Da Vinci's Demоns / Сезон: 3 / Серии: 10 из 10 (Майкл Дж. Бассетт, Дэвид С. Гойер, Джэми Пэйн) [2015, Драма, приключения, фэнтези, HDTVRip] MVO (LostFilm)+(Original)

Ответить на тему
 

Mamutov ®

Стаж: 4 года 11 месяцев

Сообщений: 255

Симпатии: 144

---Демоны да Винчи / Da Vinci's Demоns -• Год выпуска: 2015
• Страна: США
• Жанр: Драма, приключения, фэнтези
• Продолжительность: ~ 00:58:00-• Перевод: Профессиональный (многоголосый закадровый)(LostFilm)
• Русские субтитры: нет
• Режиссёр: Майкл Дж. Бассетт, Дэвид С. Гойер, Джэми Пэйн-•В ролях: Том Райли, Лаура Хэддок, Йен Пири, Эрос Влахос, Грегг Чиллин, Лара Пулвер, Том Бейтман, Гера Хилмарсдоттир, Эллиот Леви, Росс О’Хеннесси и др.
-• Описание: В мире, где мысль и вера находятся под контролем, один человек борется за то, чтобы сделать знания доступными для всех. Не рассказанная история трагичной жизни Леонардо да Винчи раскрывает портрет молодого человека, которого мучает дар гения. Он - еретик, жаждущий раскрыть ложь религии. Бунтарь, стремящийся низвергнуть элитарное общество. Незаконнорожденный сын, требующий от своего отца признания его прав.-• Качество: HDTVRip
• Формат: AVI
• Видео кодек: XviD
• Аудио кодек: MP3
• Видео: XviD, 720x400 (16:9), 23,976 fps, ~1400 kbps
• Аудио: MP3, 48 kHz, 2 ch, 128 kbps, CBR - Rus
• Аудио :MP3, 48 kHz, 2 ch, 128 kbps, CBR - Eng
---

✘ Релиз ✘

Перевод и озвучание: LostFilm
рип, синхронизация звука: qqss44
чистый рип, без заставки и логотипа

✘ MediaInfo ✘

Общее
Полное имя                               : X:\ATorrent\Da Vincis Demons (Season 03) LostFilm\Da.Vincis.Demons.S03E01.XviD.LostFilm.[qqss44].avi
Формат                                   : AVI
Формат/Информация                        : Audio Video Interleave
Размер файла                             : 600 Мбайт
Продолжительность                        : 50 м.
Общий поток                              : 1660 Кбит/сек
Программа кодирования                    : VirtualDubMod 1.5.10.3 | www.virtualdub-fr.org || (build 2550/release)
Библиотека кодирования                   : VirtualDubMod build 2550/release
Видео
Идентификатор                            : 0
Формат                                   : MPEG-4 Visual
Профиль формата                          : Advanced [email protected]
Параметр BVOP формата                    : 2
Параметр QPel формата                    : Нет
Параметр GMC формата                     : Без точки перехода
Параметр матрицы формата                 : Default (MPEG)
Идентификатор кодека                     : XVID
Идентификатор кодека/Подсказка           : XviD
Продолжительность                        : 50 м.
Битрейт                                  : 1390 Кбит/сек
Ширина                                   : 720 пикселей
Высота                                   : 400 пикселей
Соотношение сторон                       : 16:9
Частота кадров                           : 23,976 кадра/сек
Цветовое пространство                    : YUV
Субдискретизация насыщенности            : 4:2:0
Битовая глубина                          : 8 бит
Тип развёртки                            : Прогрессивная
Метод сжатия                             : С потерями
Бит/(Пиксели*Кадры)                      : 0.201
Размер потока                            : 502 Мбайт (84%)
Библиотека кодирования                   : XviD 73
Аудио #1
Идентификатор                            : 1
Формат                                   : MPEG Audio
Версия формата                           : Version 1
Профиль формата                          : Layer 3
Режим                                    : Joint stereo
Расширение режима                        : MS Stereo
Идентификатор кодека                     : 55
Идентификатор кодека/Подсказка           : MP3
Продолжительность                        : 50 м.
Вид битрейта                             : Постоянный
Битрейт                                  : 128 Кбит/сек
Каналы                                   : 2 канала
Частота                                  : 48,0 КГц
Метод сжатия                             : С потерями
Размер потока                            : 46,3 Мбайт (8%)
Выравнивание                             : Соединение по промежуткам
Продолжительность промежутка             : 42  мс. (1,00 видеокадр)
Время предзагрузки промежутка            : 504  мс.
Аудио #2
Идентификатор                            : 2
Формат                                   : MPEG Audio
Версия формата                           : Version 1
Профиль формата                          : Layer 3
Режим                                    : Joint stereo
Расширение режима                        : MS Stereo
Идентификатор кодека                     : 55
Идентификатор кодека/Подсказка           : MP3
Продолжительность                        : 50 м.
Вид битрейта                             : Постоянный
Битрейт                                  : 128 Кбит/сек
Каналы                                   : 2 канала
Частота                                  : 48,0 КГц
Метод сжатия                             : С потерями
Размер потока                            : 46,3 Мбайт (8%)
Выравнивание                             : Соединение по промежуткам
Продолжительность промежутка             : 42  мс. (1,00 видеокадр)
Время предзагрузки промежутка            : 504  мс

✘ Скриншоты ✘





Последний раз редактировалось: Mamutov (2016-01-02 10:16), всего редактировалось 9 раз(а)

Создавать темы 27-Окт-2015 00:43

[Профиль]  [ЛС] 

Mamutov ®

Стаж: 4 года 11 месяцев

Сообщений: 255

Симпатии: 144

добавлено 2 серия

Создавать темы 03-Ноя-2015 09:18

[Профиль]  [ЛС] 

Mamutov ®

Стаж: 4 года 11 месяцев

Сообщений: 255

Симпатии: 144

добавлено 3 серия

Создавать темы 12-Ноя-2015 00:19

[Профиль]  [ЛС] 

FLYer

Стаж: 7 лет

Сообщений: 94

Симпатии: 18

почему от алехфилм уже есть полный сезон? а от лостов нету

Создавать темы 12-Ноя-2015 22:00

[Профиль]  [ЛС] 

Mamutov ®

Стаж: 4 года 11 месяцев

Сообщений: 255

Симпатии: 144

FLYer, трансляция по ТВ идёт раз в неделю. И Лост будет озвучивать раз в неделю.

Создавать темы 18-Ноя-2015 19:34

[Профиль]  [ЛС] 

Mamutov ®

Стаж: 4 года 11 месяцев

Сообщений: 255

Симпатии: 144

4 серия

Создавать темы 19-Ноя-2015 09:51

[Профиль]  [ЛС] 

Mamutov ®

Стаж: 4 года 11 месяцев

Сообщений: 255

Симпатии: 144

5 серия

Создавать темы 24-Ноя-2015 19:08

[Профиль]  [ЛС] 

Mamutov ®

Стаж: 4 года 11 месяцев

Сообщений: 255

Симпатии: 144

6 серия

Создавать темы 02-Дек-2015 21:11

[Профиль]  [ЛС] 

Mamutov ®

Стаж: 4 года 11 месяцев

Сообщений: 255

Симпатии: 144

7 серия

Создавать темы 10-Дек-2015 23:13

[Профиль]  [ЛС] 

Mamutov ®

Стаж: 4 года 11 месяцев

Сообщений: 255

Симпатии: 144

8-9 серий

Создавать темы 22-Дек-2015 09:06

[Профиль]  [ЛС] 

Mamutov ®

Стаж: 4 года 11 месяцев

Сообщений: 255

Симпатии: 144

10 серия

Создавать темы 02-Янв-2016 10:17

[Профиль]  [ЛС] 
Показать сообщения:    
Ответить на тему

Текущее время: 14-Дек 20:22

Часовой пояс: UTC + 5



Вы не можете начинать темы
Вы не можете отвечать на сообщения
Вы не можете редактировать свои сообщения
Вы не можете удалять свои сообщения
Вы не можете голосовать в опросах
Вы не можете прикреплять файлы к сообщениям
Вы не можете скачивать файлы