Чума (Девяностые) / Сезон: 1 / Серии: 24 из 24 (Алексей Козлов, Александр Устюгов) [2015, криминал,сага, SATRip]

Ответить на тему
 

Mamutov ®

Стаж: 4 года 8 месяцев

Сообщений: 255

Симпатии: 144

---Чума ( Девяностые)
-• Год выпуска: 2015
• Производство: ООО «Студия „КонтАкт продакшн“
• Жанр: криминал,сага
• Продолжительность: 00:45:00
• Субтитры: нет-• Режиссёр: Алексей Козлов, Александр Устюгов-• В ролях: Сергей Жарков, Александр Устюгов, Юрий Беляев, Екатерина Климова, Борис Щербаков, Павел Григорьев, Светлана Смирнова-Марцинкевич, Андрей Ургант, Сергей Селин, Аркадий Коваль, Ярослав Бойко, Наталья Данилова, Всеволод Цурило, Борис Смолкин, Гали Абайдулов и др.
-• Описание: События нового сериала НТВ разворачиваются в России в первой половине 90-х годов XX века. В Санкт-Петербург приезжает недавно освободившийся из мест заключения Михаил Табаков по кличке Табак (Александр Устюгов). На воле у него нет ни друзей, ни родных, ни угла, а в кармане – ни копейки, только нож. Буквально через час после прибытия в Питер Табак становится случайным участником схватки оперативников и валютчиков. Вступившись за валютчика с двумя «дипломатами» наличности и ударив молодого оперативника ножом, Табак с легкостью внедряется в преступную структуру Фомича (Юрий Беляев) и начинает свое восхождение по криминальной лестнице. Оперативник Алексей Чумов (Сергей Жарков), руководивший захватом валютчиков, понимает, что гибель его сотрудника и неудача операции связаны с игрой на стороне бандитов случайной фигуры, третьей силы, появление которой он спрогнозировать не мог. Найти этого «третьего» становится для Чумы делом профессиональной чести. Так начинается противостояние двух основных героев сериала – Чумы и Табака. Табак – дерзкий преступник, черноглазый красавец, который, внедрившись в империю Фомича, посягает на устои криминальной империи и даже уводит у Фомича его любовницу Матильду. Фомич когда-то нашел эту красотку на юге страны, привез в Питер и сделал ее присутствие в игорном зале одной из «фишек» своего казино. Вопреки воли Фомича между Матильдой и Табаком разгорается любовная страсть. Так же стремительно, страстно и порой непредсказуемо развиваются линии и остальных героев, как это и происходило в те чумовые девяностые.
-• Качество: SATRip
• Формат: MKV
• Видео кодек: H.264
• Аудио кодек: AC3
• Видео: MPEG-4 AVC, 720х400,25fps,1548 Кбит/сек,Bits/Pixel 0.149
• Аудио: AC3, 48 kHz, ~192 Kbps, 2 канала
---

✘ MediaInfo ✘

Общее
Уникальный идентификатор : 190274273385075106608883899179077566400 (0x8F257DF8AF64AD66B96436D3D8ED7FC0)
Полное имя : G:\ЧУМА\01 серия.mkv
Формат : Matroska
Версия формата : Version 2
Размер файла : 499 Мбайт
Продолжительность : 45 м.
Общий поток : 1548 Кбит/сек
Дата кодирования : UTC 2015-10-26 19:47:16
Программа кодирования : mkvmerge v7.8.0 ('River Man') 32bit built on Apr 3 2015 12:11:22
Библиотека кодирования : libebml v1.3.1 + libmatroska v1.4.2
Видео
Идентификатор : 1
Формат : AVC
Формат/Информация : Advanced Video Codec
Профиль формата : [email protected]
Параметр CABAC формата : Да
Параметр ReFrames формата : 9 кадров
Идентификатор кодека : V_MPEG4/ISO/AVC
Продолжительность : 45 м.
Битрейт : 1290 Кбит/сек
Ширина : 720 пикселей
Высота : 400 пикселей
Соотношение сторон : 16:9
Режим частоты кадров : Постоянный
Частота кадров : 29,970 кадров/сек
Цветовое пространство : YUV
Субдискретизация насыщенности : 4:2:0
Битовая глубина : 8 бит
Тип развёртки : Прогрессивная
Бит/(Пиксели*Кадры) : 0.149
Размер потока : 407 Мбайт (81%)
Библиотека кодирования : x264 core 146 r2538 121396c
Настройки программы : cabac=1 / ref=9 / deblock=1:-1:-1 / analyse=0x3:0x133 / me=umh / subme=9 / psy=1 / psy_rd=1.00:0.00 / mixed_ref=0 / me_range=32 / chroma_me=1 / trellis=2 / 8x8dct=1 / cqm=0 / deadzone=21,11 / fast_pskip=1 / chroma_qp_offset=-2 / threads=2 / lookahead_threads=4 / sliced_threads=0 / nr=0 / decimate=1 / interlaced=0 / bluray_compat=0 / constrained_intra=0 / bframes=9 / b_pyramid=2 / b_adapt=1 / b_bias=0 / direct=3 / weightb=1 / open_gop=0 / weightp=2 / keyint=250 / keyint_min=25 / scenecut=40 / intra_refresh=0 / rc_lookahead=40 / rc=2pass / mbtree=1 / bitrate=1290 / ratetol=1.0 / qcomp=0.60 / qpmin=0 / qpmax=69 / qpstep=4 / cplxblur=20.0 / qblur=0.5 / ip_ratio=1.40 / aq=1:1.00
Default : Да
Forced : Нет
Цветовой диапазон : Limited
Основные цвета : BT.601 PAL
Характеристики трансфера : BT.470 System B, BT.470 System G
Коэффициенты матрицы : BT.601
Аудио
Идентификатор : 2
Формат : AC-3
Формат/Информация : Audio Coding 3
Расширение режима : CM (complete main)
Параметр Endianness формата : Big
Идентификатор кодека : A_AC3
Продолжительность : 45 м.
Вид битрейта : Постоянный
Битрейт : 256 Кбит/сек
Каналы : 2 канала
Расположение каналов : Front: L R
Частота : 48,0 КГц
Метод сжатия : С потерями
Размер потока : 82,5 Мбайт (17%)
Default : Да
Forced : Нет

✘ Скриншоты ✘



Внимание! Раздача ведётся путём добавления новых серий


Последний раз редактировалось: Mamutov (2015-12-08 15:11), всего редактировалось 13 раз(а)

Создавать темы 27-Окт-2015 08:21

[Профиль]  [ЛС] 

фазилов

Стаж: 3 года 8 месяцев

Сообщений: 310

Симпатии: 344

Формат: AVI
01 серия.mkv 499.08 MB (523331033)
02 серия.mkv 499.05 MB (523302326)
Так какой формат?

Создавать темы 28-Окт-2015 11:44

[Профиль]  [ЛС] 

Mamutov ®

Стаж: 4 года 8 месяцев

Сообщений: 255

Симпатии: 144

фазилов, исправил
добавлено новые серий

Создавать темы 28-Окт-2015 19:33

[Профиль]  [ЛС] 

Mamutov ®

Стаж: 4 года 8 месяцев

Сообщений: 255

Симпатии: 144

добавлено новые серий

Создавать темы 29-Окт-2015 08:03

[Профиль]  [ЛС] 

Mamutov ®

Стаж: 4 года 8 месяцев

Сообщений: 255

Симпатии: 144

добавлено новые серий

Создавать темы 30-Окт-2015 23:48

[Профиль]  [ЛС] 

Mamutov ®

Стаж: 4 года 8 месяцев

Сообщений: 255

Симпатии: 144

добавлено новые серий

Создавать темы 03-Ноя-2015 19:32

[Профиль]  [ЛС] 

Mamutov ®

Стаж: 4 года 8 месяцев

Сообщений: 255

Симпатии: 144

добавлено 11-12 серий

Создавать темы 04-Ноя-2015 08:43

[Профиль]  [ЛС] 

Mamutov ®

Стаж: 4 года 8 месяцев

Сообщений: 255

Симпатии: 144

добавлено новые серий

Создавать темы 06-Ноя-2015 19:49

[Профиль]  [ЛС] 

kiborg911

Стаж: 6 лет 7 месяцев

Сообщений: 58

Симпатии: 3

Сиды вы где,дайте докачать на 86 процентах застрял,потом помогу с раздачей

Создавать темы 07-Ноя-2015 17:30

[Профиль]  [ЛС] 

Mamutov ®

Стаж: 4 года 8 месяцев

Сообщений: 255

Симпатии: 144

добавлено новые серий

Создавать темы 10-Ноя-2015 08:47

[Профиль]  [ЛС] 

rack

Стаж: 3 года 10 месяцев

Сообщений: 17

Симпатии: 2

когда зарегайте

Создавать темы 14-Ноя-2015 12:42

[Профиль]  [ЛС] 

Admin

Стаж: 5 лет 8 месяцев

Сообщений: 580

Симпатии: 106

торрент зарегистрирован.
ЧУМА.torrent 55.04 KB (56370) - удалите

Создавать темы 14-Ноя-2015 12:59

[Профиль]  [ЛС] 

Mamutov ®

Стаж: 4 года 8 месяцев

Сообщений: 255

Симпатии: 144

добавлено все серий конец сезона

Создавать темы 14-Ноя-2015 22:30

[Профиль]  [ЛС] 

Fury_

Стаж: 2 года 6 месяцев

Сообщений: 22

Симпатии: 14

а нельзя ли в Avi

Создавать темы 16-Ноя-2015 20:02

[Профиль]  [ЛС] 

Admin

Стаж: 5 лет 8 месяцев

Сообщений: 580

Симпатии: 106

Fury_, конвертируйте, если хотите AVI.

Создавать темы 18-Ноя-2015 18:19

[Профиль]  [ЛС] 
Показать сообщения:    
Ответить на тему

Текущее время: 27-Сен 03:36

Часовой пояс: UTC + 5



Вы не можете начинать темы
Вы не можете отвечать на сообщения
Вы не можете редактировать свои сообщения
Вы не можете удалять свои сообщения
Вы не можете голосовать в опросах
Вы не можете прикреплять файлы к сообщениям
Вы не можете скачивать файлы