Молодёжка / Сезон: 3 / Серии: 1-40 из 40 (Сергей Арланов) [2015, Драма, спорт, SATRip]

Страницы :  1, 2  След.

Ответить на тему
 

emilsky ®

Стаж: 7 лет 2 месяца

Сообщений: 2237

Симпатии: 610

Молодёжка
Год выпуска: 2015
Производство: Россия
Жанр: Драма, спорт
Продолжительность: ~ 00:45:00
Субтитры: нет
Режиссёр: Сергей Арланов
В ролях: Серафима Низовская, Владимир Зайцев, Сергей Габриэлян, Денис Никифоров, Валентина Ананьина, Сергей Комаров (II), Михаил Жигалов, Фёдор Бондарчук, Анатолий Лобоцкий, Ксения Лаврова-Глинка, Макар Запорожский, Александр Соколовский, Влад Канопка, Илья Коробко, Игорь Огурцов, Анна Михайловская, Иван Жвакин, Мария Иващенко, Николай Добрынин, Игорь Арташонов
Описание: Молодежная хоккейная лига или «молодежка» — соревнование, в котором выступают молодежные команды, составленные из игроков в возрасте от 17 до 21 года. Именно чемпионат «молодежки» обеспечивает КХЛ (Континентальную Хоккейную Лигу) «свежей кровью» — талантливыми молодыми хоккеистами. «Медведи» никогда не были топ-командой молодежной лиги. Вратарь слишком умный, защита слишком вялая, а лидеры только и делают, что тянут одеяло на себя. Они умеют вместе выходить на площадку, но еще не умеют вместе играть... Но теперь все будет по-другому — за команду берется молодой тренер Сергей Макеев (Денис Никифоров). Когда-то он был звездой НХЛ, но после травмы завершил карьеру игрока и вернулся на родину. Перед новоиспеченным тренером стоит невыполнимая задача — выиграть чемпионат и создать команду первоклассных хоккеистов. Макеев должен превратить ребят в самых настоящих «медведей», которые порвут всех на пути к победе…Только сделать это совсем не просто, ведь у его игроков совсем другие интересы — учеба, друзья и, конечно, девушки. Да и менеджмент клуба не особо рад приходу слишком активного тренера…
Качество: SATRip
Формат: AVI
Видео кодек: XviD
Аудио кодек: AC3
Видео: XviD, 1800 Кбит/с, 720х400
Аудио: AC3, 2 ch, 192 Кбит/с

MI

e:\Сериалы\Молодежка. Сезон 3\Серия 01.avi
General
Complete name : e:\Сериалы\Молодежка. Сезон 3\Серия 01.avi
Format : AVI
Format/Info : Audio Video Interleave
File size : 688 MiB
Duration : 47mn 50s
Overall bit rate : 2 011 Kbps
Writing library : VirtualDub build 35512/release
Video #0
ID : 0
Format : MPEG-4 Visual
Format profile : Advanced [email protected]
Format settings, BVOP : 2
Format settings, QPel : No
Format settings, GMC : No warppoints
Format settings, Matrix : Default (MPEG)
Codec ID : XVID
Codec ID/Hint : XviD
Duration : 47mn 50s
Bit rate : 1 810 Kbps
Width : 720 pixels
Height : 400 pixels
Display aspect ratio : 16:9
Frame rate : 25.000 fps
Color space : YUV
Chroma subsampling : 4:2:0
Bit depth : 8 bits
Scan type : Progressive
Compression mode : Lossy
Bits/(Pixel*Frame) : 0.251
Stream size : 619 MiB (90%)
Writing library : XviD 73
Audio #1
ID : 1
Format : AC-3
Format/Info : Audio Coding 3
Mode extension : CM (complete main)
Format settings, Endianness : Big
Codec ID : 2000
Duration : 47mn 50s
Bit rate mode : Constant
Bit rate : 192 Kbps
Channel(s) : 2 channels
Channel positions : Front: L R
Sampling rate : 48.0 KHz
Bit depth : 16 bits
Compression mode : Lossy
Stream size : 65.7 MiB (10%)
Alignment : Aligned on interleaves
Interleave, duration : 40 ms (1.00 video frame)
Interleave, preload duration : 512 ms

Скриншоты



Последний раз редактировалось: emilsky (2016-04-21 22:55), всего редактировалось 21 раз(а)

Создавать темы 27-Окт-2015 17:28

[Профиль]  [ЛС] 

emilsky ®

Стаж: 7 лет 2 месяца

Сообщений: 2237

Симпатии: 610

В мире неделю назад выкладывали 4 серии в качестве webrip, признаюсь смотрел именно в таком качестве, но заливать решил качеством получше.
З.Ы. возможно релиз заменю на качество webdl-rip, там все в идеале должно быть круто, но пока исходники с жутким рассинхроном звука.
З.З.Ы. Приятного просмотра!

Создавать темы 27-Окт-2015 17:31

[Профиль]  [ЛС] 

emilsky ®

Стаж: 7 лет 2 месяца

Сообщений: 2237

Симпатии: 610

3 и 4 серии!

Создавать темы 29-Окт-2015 00:21

[Профиль]  [ЛС] 

emilsky ®

Стаж: 7 лет 2 месяца

Сообщений: 2237

Симпатии: 610

5 и 6 серии!

Создавать темы 29-Окт-2015 06:20

[Профиль]  [ЛС] 

an4ik

Стаж: 7 лет 5 месяцев

Сообщений: 12

Симпатии: 2

спасибо за релиз.

Создавать темы 30-Окт-2015 10:59

[Профиль]  [ЛС] 

emilsky ®

Стаж: 7 лет 2 месяца

Сообщений: 2237

Симпатии: 610

7 и 8 серии!

Создавать темы 31-Окт-2015 01:22

[Профиль]  [ЛС] 

DuBLёR

Стаж: 3 года 7 месяцев

Сообщений: 17

Симпатии: 34

А чё источник, куда пропал?

Создавать темы 31-Окт-2015 20:13

[Профиль]  [ЛС] 

sem

Стаж: 6 лет 11 месяцев

Сообщений: 123

Симпатии: 6

а где скорость? в час по чайной ложке можно сказать!)

Создавать темы 04-Ноя-2015 16:48

[Профиль]  [ЛС] 

inkus

Стаж: 7 лет 5 месяцев

Сообщений: 50

Симпатии: 39

а будет источник или не стоит ждать?

Создавать темы 05-Ноя-2015 20:13

[Профиль]  [ЛС] 

emilsky ®

Стаж: 7 лет 2 месяца

Сообщений: 2237

Симпатии: 610

обновлено до 12 серии!

Создавать темы 08-Ноя-2015 20:24

[Профиль]  [ЛС] 

sem

Стаж: 6 лет 11 месяцев

Сообщений: 123

Симпатии: 6

а почему трекер удалили? какието проблемы чтоли были?

Комментарий от emilsky


проблемы у трекера, не всегда удается зарегистрировать торрент-файл

Создавать темы 11-Ноя-2015 17:27

[Профиль]  [ЛС] 

emilsky ®

Стаж: 7 лет 2 месяца

Сообщений: 2237

Симпатии: 610

обновлено до 16 серии!

Создавать темы 15-Ноя-2015 00:41

[Профиль]  [ЛС] 

sem

Стаж: 6 лет 11 месяцев

Сообщений: 123

Симпатии: 6

ааа ну понятно!!! Ну теперь будем надеяться проблем уже нет и небудет !! =)

Создавать темы 18-Ноя-2015 16:27

[Профиль]  [ЛС] 

emilsky ®

Стаж: 7 лет 2 месяца

Сообщений: 2237

Симпатии: 610

обновлено до 20 серии!

Создавать темы 20-Ноя-2015 09:12

[Профиль]  [ЛС] 

Makarov

Стаж: 6 лет 3 месяца

Сообщений: 46

Симпатии: 3

emilsky, продолжение когда будут?

Создавать темы 26-Ноя-2015 21:22

[Профиль]  [ЛС] 
Показать сообщения:    
Ответить на тему

Текущее время: 22-Сен 16:35

Часовой пояс: UTC + 5



Вы не можете начинать темы
Вы не можете отвечать на сообщения
Вы не можете редактировать свои сообщения
Вы не можете удалять свои сообщения
Вы не можете голосовать в опросах
Вы не можете прикреплять файлы к сообщениям
Вы не можете скачивать файлы