Северная пограничная линия / N.L.L: Yeonpyeong Haejeon (Kim Hak-Soon) [2015, Южная Корея, драма, военный, исторический, HDRip] (DVO)

Ответить на тему
 

Jasur S ®

Стаж: 4 года 4 месяца

Сообщений: 110

Симпатии: 111

Северная пограничная линия / N.L.L: Yeonpyeong Haejeon
-
Страна: Южная Корея
Жанр: драма, военный, исторический
Год выпуска: 2015
Продолжительность: 02:10:15
Перевод: Любительский (двухголосый закадровый)
Cубтитры: нет
Оригинальная аудиодорожка: корейский
Режиссер: Kim Hak-Soon
-
В ролях: Чжин Гу, Ким Му Ёль, Чхун-а Ли, Ли Ван
Описание: Фильм посвящён морскому сражению между Северной и Южной Кореей в Жёлтом море. 29 июня 2002 года. Корея проводит утешительный матч против Турции на чемпионате мира. Моряки с военного корабля на острове Ёнпхёндо готовятся поддержать свою команду, но вступают в отчаянное сражение за выживание… Фильм знакомит нас с героями 20-минутного сражения, которые сражались за свои жизни. И чьи имена были забыты…
-
Доп. информация: Так как фильм скачан из другого торрент трекера в зоне тас-икс, хотелось бы упомянуть автора, но жаль не могу) Ну и конечно причиной того, что я добавляю фильм вне графика в том, что он "украдееен")))
-
Качество видео: HDRip
Формат видео: AVI
Видео: Xvid 720x304 24fps [Video]
Аудио: Dolby AC3 48000Hz 6ch 448kbps [Audio]

MediaInfo

General
Complete name : D:\dramas\N.L.L Yeonpyeong Haejeon.L2.2015.HDRip.avi
Format : AVI
Format/Info : Audio Video Interleave
File size : 1.46 GiB
Duration : 2h 10mn
Overall bit rate : 1 609 Kbps
Writing application : VirtualDubMod 1.5.10.3 | www.virtualdub-fr.org || (build 2550/release)
Writing library : VirtualDubMod build 2550/release
Video
ID : 0
Format : MPEG-4 Visual
Format profile : Advanced [email protected]
Format settings, BVOP : Yes
Format settings, QPel : No
Format settings, GMC : No warppoints
Format settings, Matrix : Default (MPEG)
Codec ID : XVID
Codec ID/Hint : XviD
Duration : 2h 10mn
Bit rate : 1 152 Kbps
Width : 720 pixels
Height : 304 pixels
Display aspect ratio : 2.35:1
Frame rate : 24.000 fps
Color space : YUV
Chroma subsampling : 4:2:0
Bit depth : 8 bits
Scan type : Progressive
Compression mode : Lossy
Bits/(Pixel*Frame) : 0.219
Stream size : 1.05 GiB (72%)
Writing library : XviD 73
Audio
ID : 1
Format : AC-3
Format/Info : Audio Coding 3
Mode extension : CM (complete main)
Format settings, Endianness : Big
Codec ID : 2000
Duration : 2h 10mn
Bit rate mode : Constant
Bit rate : 448 Kbps
Channel(s) : 6 channels
Channel positions : Front: L C R, Side: L R, LFE
Sampling rate : 48.0 KHz
Bit depth : 16 bits
Compression mode : Lossy
Stream size : 417 MiB (28%)
Alignment : Split accross interleaves
Interleave, duration : 42 ms (1.00 video frame)
Interleave, preload duration : 500 ms

Создавать темы 27-Окт-2015 21:38

[Профиль]  [ЛС] 

Jasur S ®

Стаж: 4 года 4 месяца

Сообщений: 110

Симпатии: 111

Причина оформления релиза в том, что фильм довольно достойный..) Фильм получился очень зрелищный и хотелось бы сказать, что на его снятие ушел очень большой промежуток времени так как сначала родственники погибших не разрешали снимать а потом само правительство запрещало из за улучшения отношений между Югом и Севером.) Очень зрелищные сцены, чувства отца потерявшего сына, детей оставшихся без родителей, жены без мужа...(( очень и очень печально..( Надеюсь всем данный фильм понравится!)


Последний раз редактировалось: Jasur S (2015-10-27 22:01), всего редактировалось 2 раз(а)

Создавать темы 27-Окт-2015 21:45

[Профиль]  [ЛС] 

Jasur S ®

Стаж: 4 года 4 месяца

Сообщений: 110

Симпатии: 111

Ну и хотелось добавить, что фильм показывает не столько военную сторону сколько их жизни на пограничной линии на корабле)

Создавать темы 27-Окт-2015 22:00

[Профиль]  [ЛС] 

Davron1402

Стаж: 3 года 7 месяцев

Сообщений: 136

Симпатии: 122

спасибо

Создавать темы 28-Окт-2015 01:08

[Профиль]  [ЛС] 

Jasur S ®

Стаж: 4 года 4 месяца

Сообщений: 110

Симпатии: 111

Davron1402, вам спасибо, что смотрите со мной...)

Создавать темы 28-Окт-2015 06:57

[Профиль]  [ЛС] 

drnemo

Стаж: 5 лет 7 месяцев

Сообщений: 89

Симпатии: 14

раздачу!!!!!!!!!!!!!

Создавать темы 29-Июл-2016 17:36

[Профиль]  [ЛС] 
Показать сообщения:    
Ответить на тему

Текущее время: 19-Авг 21:55

Часовой пояс: UTC + 5



Вы не можете начинать темы
Вы не можете отвечать на сообщения
Вы не можете редактировать свои сообщения
Вы не можете удалять свои сообщения
Вы не можете голосовать в опросах
Вы не можете прикреплять файлы к сообщениям
Вы не можете скачивать файлы