Шпион / SPY (Пол Фиг) [2015, США, Комедия/боевик, BDRip] (Dub) (Sub Eng)

Ответить на тему
 

kvn61 ®

Стаж: 1 год 11 месяцев

Сообщений: 1

Шпион / SPY
Страна: США
Жанр: Комедия/боевик
Год выпуска: 2015
Продолжительность: 2:10
Перевод: Профессиональный (дублированный)
Cубтитры: английские
Режиссер: Пол Фиг
В ролях: Морена Баккарин, Роуз Бирн, Джейсон Стэйтем, Мелисса МакКарти, Джуд Лоу, Эллисон Дженни, Бобби Каннавале, Питер Серафинович, Фифти Сент, Миранда Харт
Описание: Новая американская комедия расскажет нам историю одной уж совсем неприметной работницы ЦРУ. Девушка по имени Сьюзан Купер не отличается ни красотой, ни каким-либо талантом, да и вся жизнь у нее серая и однообразная. Мечтая стать крутым тайным агентом, она выучилась и устроилась в ЦРУ, но занималась там только документацией. Но вот однажды у нее появился шанс все изменить
Качество видео: BDRip
Формат видео: MKV
Видео: V_MPEG4/AVC. 1080р. 1920x808. 23,976 кадра/сек. 9290 Кбит/сек
Аудио: AC-3. 48,0 КГц. 384 Кбит/сек. Front: L C R, Side: L R, LFE
Аудио 2: DTS. 48,0 КГц. 1509 Кбит/сек. Front: L C R, Side: L R, LFE

MediaInfo

Общее
Уникальный идентификатор : 223349330340542692843015465660799922897 (0xA807842E9B6EA2489A4DD9ED3EFE32D1)
Полное имя : shpion-2015.BDRip.1080p.mkv
Формат : Matroska
Версия формата : Version 2
Размер файла : 10,2 Гбайт
Продолжительность : 2 ч. 10 м.
Общий поток : 11,2 Мбит/сек
Дата кодирования : UTC 2015-09-15 05:01:36
Программа кодирования : mkvmerge v8.3.0 ('Over the Horizon') 64bit
Библиотека кодирования : libebml v1.3.1 + libmatroska v1.4.2
DURATION : 00:00:26.193000000
NUMBER_OF_FRAMES : 8
NUMBER_OF_BYTES : 149
_STATISTICS_WRITING_APP : mkvmerge v8.3.0 ('Over the Horizon') 64bit
_STATISTICS_WRITING_DATE_UTC : 2015-09-15 05:01:36
_STATISTICS_TAGS : BPS DURATION NUMBER_OF_FRAMES NUMBER_OF_BYTES
Видео
Идентификатор : 2
Формат : AVC
Формат/Информация : Advanced Video Codec
Профиль формата : [email protected]
Параметр CABAC формата : Да
Параметр ReFrames формата : 5 кадров
Идентификатор кодека : V_MPEG4/ISO/AVC
Продолжительность : 2 ч. 10 м.
Битрейт : 9290 Кбит/сек
Ширина : 1920 пикселей
Высота : 808 пикселей
Соотношение сторон : 2,40:1
Режим частоты кадров : Постоянный
Частота кадров : 23,976 кадра/сек
Цветовое пространство : YUV
Субдискретизация насыщенности : 4:2:0
Битовая глубина : 8 бит
Тип развёртки : Прогрессивная
Бит/(Пиксели*Кадры) : 0.250
Размер потока : 8,26 Гбайт (81%)
Библиотека кодирования : x264 core 148 r2597 e86f3a1
Настройки программы : cabac=1 / ref=5 / deblock=1:0:0 / analyse=0x3:0x133 / me=umh / subme=7 / psy=1 / psy_rd=1.00:0.00 / mixed_ref=1 / me_range=16 / chroma_me=1 / trellis=1 / 8x8dct=1 / cqm=0 / deadzone=21,11 / fast_pskip=0 / chroma_qp_offset=-2 / threads=18 / lookahead_threads=3 / sliced_threads=0 / nr=0 / decimate=1 / interlaced=0 / bluray_compat=0 / constrained_intra=0 / bframes=3 / b_pyramid=2 / b_adapt=1 / b_bias=0 / direct=1 / weightb=1 / open_gop=0 / weightp=2 / keyint=250 / keyint_min=23 / scenecut=40 / intra_refresh=0 / rc_lookahead=40 / rc=2pass / mbtree=1 / bitrate=9290 / ratetol=1.0 / qcomp=0.60 / qpmin=0 / qpmax=69 / qpstep=4 / cplxblur=20.0 / qblur=0.5 / ip_ratio=1.40 / aq=1:1.00
Язык : English
Default : Да
Forced : Нет
Аудио #1
Идентификатор : 1
Формат : AC-3
Формат/Информация : Audio Coding 3
Расширение режима : CM (complete main)
Параметр Endianness формата : Big
Идентификатор кодека : A_AC3
Продолжительность : 2 ч. 10 м.
Вид битрейта : Постоянный
Битрейт : 384 Кбит/сек
Каналы : 6 каналов
Расположение каналов : Front: L C R, Side: L R, LFE
Частота : 48,0 КГц
Метод сжатия : С потерями
Размер потока : 358 Мбайт (3%)
Язык : Russian
Default : Да
Forced : Нет
DURATION : 02:10:22.911000000
NUMBER_OF_FRAMES : 187562
NUMBER_OF_BYTES : 9085422243
_STATISTICS_WRITING_APP : mkvmerge v8.3.0 ('Over the Horizon') 64bit
_STATISTICS_WRITING_DATE_UTC : 2015-09-15 05:01:36
_STATISTICS_TAGS : BPS DURATION NUMBER_OF_FRAMES NUMBER_OF_BYTES
Аудио #2
Идентификатор : 3
Формат : DTS
Формат/Информация : Digital Theater Systems
Профиль формата : ES
Режим : 16
Параметр Endianness формата : Big
Идентификатор кодека : A_DTS
Продолжительность : 2 ч. 10 м.
Вид битрейта : Постоянный
Битрейт : 1509 Кбит/сек
Каналы : 6 каналов
Расположение каналов : Front: L C R, Side: L R, LFE
Частота : 48,0 КГц
Битовая глубина : 24 бит
Метод сжатия : С потерями
Размер потока : 1,37 Гбайт (13%)
Язык : English
Default : Нет
Forced : Нет
Текст
Идентификатор : 4
Формат : UTF-8
Идентификатор кодека : S_TEXT/UTF8
Идентификатор кодека/Информация : UTF-8 Plain Text
Заголовок : English-Forced
Язык : English
Default : Да
Forced : Да
Меню
00:00:00.000 : en:00:00:00.000
00:03:38.593 : en:00:03:38.593
00:07:46.132 : en:00:07:46.132
00:10:08.691 : en:00:10:08.691
00:14:11.142 : en:00:14:11.142
00:15:42.859 : en:00:15:42.859
00:20:54.378 : en:00:20:54.378
00:23:25.863 : en:00:23:25.863
00:27:59.928 : en:00:27:59.928
00:31:11.077 : en:00:31:11.077
00:34:24.062 : en:00:34:24.062
00:39:30.576 : en:00:39:30.576
00:45:24.847 : en:00:45:24.847
00:47:42.318 : en:00:47:42.318
00:50:48.128 : en:00:50:48.128
00:55:26.656 : en:00:55:26.656
00:58:28.547 : en:00:58:28.547
01:03:35.728 : en:01:03:35.728
01:08:58.509 : en:01:08:58.509
01:11:00.131 : en:01:11:00.131
01:16:25.998 : en:01:16:25.998
01:22:32.906 : en:01:22:32.906
01:28:07.323 : en:01:28:07.323
01:33:11.419 : en:01:33:11.419
01:37:02.858 : en:01:37:02.858
01:40:18.429 : en:01:40:18.429
01:47:27.190 : en:01:47:27.190
01:50:45.055 : en:01:50:45.055
01:55:31.382 : en:01:55:31.382
01:59:40.464 : en:01:59:40.464
02:02:28.341 : en:02:02:28.341
02:05:03.662 : en:02:05:03.662

Скриншот c названием фильма

http://img.tas-ix.net/image/APN

Создавать темы 28-Окт-2015 15:54

[Профиль]  [ЛС] 
Показать сообщения:    
Ответить на тему

Текущее время: 23-Окт 02:02

Часовой пояс: UTC + 5



Вы не можете начинать темы
Вы не можете отвечать на сообщения
Вы не можете редактировать свои сообщения
Вы не можете удалять свои сообщения
Вы не можете голосовать в опросах
Вы не можете прикреплять файлы к сообщениям
Вы не можете скачивать файлы