Атака титанов. Фильм второй-2: Конец света / Shingeki no kyojin endo obu za wârudo (Синдзи Хигути | Shinji Higuchi) [2015, Япония, ужасы, фэнтези, боевик, драма, BDRip] (Dub)

Ответить на тему
 

asqarjalolov ®

Стаж: 5 лет 3 месяца

Сообщений: 9

Симпатии: 8

Атака титанов-2. Фильм второй: Конец света / Shingeki no kyojin endo obu za wârudo
Страна: Япония
Жанр: ужасы, фэнтези, боевик, драма
Год выпуска: 2015
Продолжительность: 01:27:14
Перевод: Профессиональный (дублированный)
Cубтитры: нет
Режиссер: Синдзи Хигути | Shinji Higuchi
В ролях: Хироки Хасегава (Captain Shikishima / Armored Titan), Каната Хонго (Armin Arlert), Кико Мидзухара (Mikasa Ackerman), Такахиро Миура (Jean Kirstein), Нанами Сакураба (Sasha Blouse), Аямэ Мисаки (Hiana), Сатоми Исихара (Zoë Hange), Рина Такеда (Lil), Пьер Таки (Souda), Дзюн Кунимура (Kubal), Шу Ватанабэ (Fukushi), Сатору Мацуо (Sannagi)
Описание: Сотни лет назад самым страшным кошмаром людей были Титаны, появившиеся неизвестно откуда. Человечество было для исполинов всего лишь кормом. Когда люди возвели вокруг своих городов огромную защитную стену, жизнь изменилась - в ней появились спокойствие и беззаботность. Как оказалось, лишь на время.
Страх и ужас вернулись, когда стена пала и первобытные гиганты вновь ступили на территорию людей. В неравной борьбе от человечества практически ничего не осталось, а на защиту выживших встаёт парень по имени Эрен, жаждущий мести за смерть своих близких.
Доп. информация: Сценарий: Хадзимэ Исаяма, Томохиро Матияма, Юсуке Ватанабэ
Продюсер: Юджи Ишида, Генки Кавамура
Оператор: Shoji Ehara
Композитор: Сиро Сагису, Shiro Washizu
Художник: Такеши Симидзу, Shinichi Miter
Качество видео: BDRip
Формат видео: AVI
Видео: XviD, 720x304 (2.35:1), 1760 kbps, 24 fps, 0,335 bpp
Аудио: AC3 / 5.1 / 48 kHz / 384 kbps / 16 bit

MediaInfo

General
Название : D:\Торенты\Ataka.Titanov.2.2015.D.WEB-DLRip.avi
Формат : AVI
Формат/Info : Audio Video Interleave
Размер файла : 1.37 GiB
Длительность : 1h 27mn
Общий Битрейт : 2 242 Kbps
Создано приложением : VirtualDubMod 1.5.10.3 | www.virtualdub-fr.org || (build 2550/release)
Writing library : VirtualDubMod build 2550/release
Video
ID : 0
Формат : MPEG-4 Visual
Формат profile : Advanced [email protected]
Формат настройки, BVOP : 2
Формат настройки, QPel : No
Формат настройки, GMC : No warppoints
Формат настройки, Matrix : Default (MPEG)
Кодек ID : XVID
Кодек ID/Hint : XviD
Длительность : 1h 27mn
Битрейт : 1 760 Kbps
Width : 720 пикселей
Высота : 304 пикселей
Соотношение кадра : 2.35:1
Частота кадров : 24.000 fps
Цветопередача : YUV
Chroma subsampling : 4:2:0
Разрядность : 8 bits
Тип сканирования : Progressive
Режим сжатия : Lossy
Bits/(Pixel*Frame) : 0.335
Размер потока : 1.07 GiB (79%)
Writing library : XviD 1.2.1 (UTC 2008-12-04)
Audio
ID : 1
Формат : AC-3
Формат/Info : Audio Coding 3
Расширение режима : CM (complete main)
Кодек ID : 2000
Длительность : 1h 27mn
Битрейт mode : Constant
Битрейт : 384 Kbps
Каналы(s) : 6 каналов
Каналы positions : Front: L C R, Side: L R, LFE
Частота : 48.0 KHz
Разрядность : 16 bits
Режим сжатия : Lossy
Размер потока : 240 MiB (17%)
Выравнивание : Split accross interleaves

Скриншоты

Создавать темы 29-Окт-2015 15:23

[Профиль]  [ЛС] 

Топик был перенесен из форума Фильмы за 2015 в форум Азиатские фильмы
Grock

Создавать темы 29-Окт-2015 17:55

 

grig

Стаж: 4 года 6 месяцев

Сообщений: 11

Симпатии: 8

asqarjalolov, раздавать будем или другие начнут

Создавать темы 29-Окт-2015 18:51

[Профиль]  [ЛС] 
Показать сообщения:    
Ответить на тему

Текущее время: 18-Авг 21:25

Часовой пояс: UTC + 5



Вы не можете начинать темы
Вы не можете отвечать на сообщения
Вы не можете редактировать свои сообщения
Вы не можете удалять свои сообщения
Вы не можете голосовать в опросах
Вы не можете прикреплять файлы к сообщениям
Вы не можете скачивать файлы