Голос улиц / Straight Outta Compton (Ф. Гэри Грей) [2015, США, Боевик, музыкальный, драма, криминал, WEB-DLRip] [DVO: Shao Hoops]

Ответить на тему
 

ruhal ®

Стаж: 2 года 7 месяцев

Сообщений: 1181

Симпатии: 1836

- -Голос улиц / Straight Outta Compton- -Страна: США
Жанр: Боевик, музыкальный, драма, криминал
Год выпуска: 2015
Продолжительность: 02:24:02-Перевод:Любительский (Одноголосый) [Shao Hoops]
Субтитры: русские вшитые (рэп)-Режиссер: Ф. Гэри Грей-В ролях: О’Ши Джексон мл., Кори Хоукинс, Джейсон Митчелл, Нил Браун мл.,
Элдис Ходж, Марлон Йэтс мл., Р. Маркус Тейлор, Карра Паттерсон, Александра Шипп, Пол Джаматти-Описание: В середине восьмидесятых годов пятеро молодых ребят с улиц Комптона объединились в хим-хоп группу N.W.A,
чтобы рассказать всему миру о насущных проблемах и опасностях, притаившихся на улицах.
Агрессивный подход и затрагиваемые трепетные темы текстов помогли простым парням прямиком из Комптона
подняться на вершину музыкальной иерархии жанра. Все они росли на улицах, где продавали наркотики,
состояли в бандах и принимали участие в криминальных разборках, а теперь у ребят появилась возможность рассказать свои суровые истории всем.-Качество видео: WEB-DLRip
Формат видео: AVI
Видео: Xvid 720x304 25fps 1228kbps
Аудио: Dolby AC3 48000Hz stereo 192kbps
-

MediaInfo

General
Complete name : E:\Films\Straight.Outta.Compton.2015.WEB-DLRip.avi
Format : AVI
Format/Info : Audio Video Interleave
File size : 1.44 GiB
Duration : 2h 24mn
Overall bit rate : 1 430 Kbps
Writing application : VirtualDubMod 1.5.10.2 (build 2540/release)
Writing library : VirtualDubMod build 2540/release
Video
ID : 0
Format : MPEG-4 Visual
Format profile : Advanced [email protected]
Format settings, BVOP : 2
Format settings, QPel : No
Format settings, GMC : No warppoints
Format settings, Matrix : Default (MPEG)
Muxing mode : Packed bitstream
Codec ID : XVID
Codec ID/Hint : XviD
Duration : 2h 24mn
Bit rate : 1 229 Kbps
Width : 720 pixels
Height : 304 pixels
Display aspect ratio : 2.35:1
Frame rate : 25.000 fps
Color space : YUV
Chroma subsampling : 4:2:0
Bit depth : 8 bits
Scan type : Progressive
Compression mode : Lossy
Bits/(Pixel*Frame) : 0.225
Stream size : 1.24 GiB (86%)
Writing library : XviD 64
Audio
ID : 1
Format : AC-3
Format/Info : Audio Coding 3
Mode extension : CM (complete main)
Format settings, Endianness : Big
Codec ID : 2000
Duration : 2h 24mn
Bit rate mode : Constant
Bit rate : 192 Kbps
Channel(s) : 2 channels
Channel positions : Front: L R
Sampling rate : 48.0 KHz
Compression mode : Lossy
Stream size : 198 MiB (13%)
Alignment : Split accross interleaves
Interleave, duration : 40 ms (1.00 video frame)
Interleave, preload duration : 500 ms

Скриншот c названием фильма

Скриншоты

Info about Movie

N.W.A - Легендарная рэп команда из Комптона, штат Калифорния. Основатели стиля гангста - рэп.
Вот два самых известных участника группы:

Создавать темы 29-Окт-2015 19:18

[Профиль]  [ЛС] 
Показать сообщения:    
Ответить на тему

Текущее время: 22-Ноя 07:04

Часовой пояс: UTC + 5



Вы не можете начинать темы
Вы не можете отвечать на сообщения
Вы не можете редактировать свои сообщения
Вы не можете удалять свои сообщения
Вы не можете голосовать в опросах
Вы не можете прикреплять файлы к сообщениям
Вы не можете скачивать файлы