Том и Вайт уделывают Америку / Friendship! (Маркус Голлер) [2009, Германия, США, драма, мелодрама, комедия, DVDRip] (MVO)

Ответить на тему
 

X-MART ®

Стаж: 2 года 2 месяца

Сообщений: 21

Симпатии: 14

Том и Вайт уделывают Америку / Friendship! Страна: Германия, США
Жанр: драма, мелодрама, комедия
Год выпуска: 2009
Продолжительность: 1:44
Перевод: Профессиональный (многоголосый закадровый)
Cубтитры: нет
Режиссер: Маркус Голлер
В ролях: Маттиас Швайгхёфер
Фридрих Мюке
Алиция Бахледа
Тодд Стэшвик
Питер Макон
Кевин О. Ранкин
Камерон Гудман
Кимберли Дж. Браун
Коко Браун
Дуэйн Эдвэй
Описание: 1989 год. Германия. Падение Берлинской стены открыло перед двумя друзьями дорогу через океан — в Америку. Ничто и никто не омрачит их веселое путешествие! Даже языковой барьер не станет для них серьезным препятствием. Ведь язык любви, как известно, интернационален. Друзья держат путь в Сан-Франциско. Именно в этом городе они мечтают оторваться по полной. Держись, Америка!
Качество видео: DVDRip
Формат видео: AVI
Видео: XVID 720x400 16:9 25fps 1477kbps
Аудио: AC-3 2ch 48.0khz 192kbps

MediaInfo

D:\kino\\Том и Вайт уделывают Америку_Friendship.2010.DVDRip.avi
General
Complete name : D:\kino\\Том и Вайт уделывают Америку_Friendship.2010.DVDRip.avi
Format : AVI
Format/Info : Audio Video Interleave
File size : 1.37 GiB
Duration : 1h 44mn
Overall bit rate : 1 873 Kbps
Writing application : VirtualDubMod 1.5.10.2 (build 2540/release)
Writing library : VirtualDubMod build 2540/release
Video #0
ID : 0
Format : MPEG-4 Visual
Format profile : Advanced [email protected]
Format settings, BVOP : 2
Format settings, QPel : No
Format settings, GMC : No warppoints
Format settings, Matrix : Default (H.263)
Muxing mode : Packed bitstream
Codec ID : XVID
Codec ID/Hint : XviD
Duration : 1h 44mn
Bit rate : 1 477 Kbps
Width : 720 pixels
Height : 400 pixels
Display aspect ratio : 16:9
Frame rate : 25.000 fps
Color space : YUV
Chroma subsampling : 4:2:0
Bit depth : 8 bits
Scan type : Progressive
Compression mode : Lossy
Bits/(Pixel*Frame) : 0.205
Stream size : 1.08 GiB (79%)
Writing library : XviD 1.0.3 (UTC 2004-12-20)
Audio #1
ID : 1
Format : AC-3
Format/Info : Audio Coding 3
Mode extension : CM (complete main)
Format settings, Endianness : Big
Codec ID : 2000
Duration : 1h 44mn
Bit rate mode : Constant
Bit rate : 192 Kbps
Channel count : 2 channels
Channel positions : Front: L R
Sampling rate : 48.0 KHz
Bit depth : 16 bits
Compression mode : Lossy
Stream size : 143 MiB (10%)
Alignment : Split accross interleaves
Interleave, duration : 40 ms (1.01 video frame)
Interleave, preload duration : 500 ms
Audio #2
ID : 2
Format : AC-3
Format/Info : Audio Coding 3
Mode extension : CM (complete main)
Format settings, Endianness : Big
Codec ID : 2000
Duration : 1h 44mn
Bit rate mode : Constant
Bit rate : 192 Kbps
Channel count : 2 channels
Channel positions : Front: L R
Sampling rate : 48.0 KHz
Bit depth : 16 bits
Compression mode : Lossy
Stream size : 143 MiB (10%)
Alignment : Split accross interleaves
Interleave, duration : 40 ms (1.01 video frame)
Interleave, preload duration : 500 ms

Доп. информация

Во-первых, нормальный перевод названия фильма — «Дружба». «Том и Вайт УДЕЛЫВАЮТ Америку» — это такое типичное название наитупейшей молодежной комедии, на которую ходят «тупо поржать».
Это, скорее всего, драма со смешными моментами. Фильм об освобождении из консервной банки. О том, как немецкие парни из Восточной Германии без знания английского языка и фактически без денег отправились постигать свободный мир Америки после крушения Берлинской стены. В дальнейшем, правда, открывается истинная причина поездки одного из них…

Скриншоты



Последний раз редактировалось: X-MART (2015-11-01 18:55), всего редактировалось 1 раз

Создавать темы 31-Окт-2015 21:06

[Профиль]  [ЛС] 
Показать сообщения:    
Ответить на тему

Текущее время: 12-Дек 13:34

Часовой пояс: UTC + 5



Вы не можете начинать темы
Вы не можете отвечать на сообщения
Вы не можете редактировать свои сообщения
Вы не можете удалять свои сообщения
Вы не можете голосовать в опросах
Вы не можете прикреплять файлы к сообщениям
Вы не можете скачивать файлы