Триумфальный марш / Marcia trionfale (Марко Беллоккьо) [1976, Италия, Франция, Германия (ФРГ), драма, DVDRip] AVO (Мудров)

Ответить на тему
 

lotto ®

Стаж: 7 лет 11 месяцев

Сообщений: 221

Симпатии: 409

Триумфальный марш / Marcia trionfale-- Страна: Италия, Франция, Германия (ФРГ)
Жанр: драма
Год выпуска: 1976
Продолжительность: 01:55:03
Перевод: Авторский (одноголосый закадровый) Андрей Мудров
Cубтитры: нет--Режиссер: Марко Беллоккьо
В ролях: Микеле Плачидо, Франко Неро, Миу-Миу, Патрик Девэр, Петер Берлинг, Алессандро Хабер, Лючано Кровато, Нино Биньямини, Массимо Болди, Эккехардт Белле--Описание: Офицер Ашутто очень жесток, он издевается над солдатами. Так же жестко он обращается со своей женой, которая хочет ласки и изменяет ему с другими офицерами. Паоло Пассери, солдат первого года службы, сталкивается с дедовщиной и не мирится с таким положением дел, из-за чего у него проблемы в отношениях с сослуживцами, но благодаря чему он заслуживает уважение Ашутто, который опрометчиво доверяет ему следить за своей женой.-- --Качество видео: DVDRip
Формат видео: AVI
Видео: XviD, 720x400, 25 fps, 1615 kbps
Аудио: AC3, 48 kHz, 2 ch, 192.00 kbps (русский, одноголосый)

MediaInfo

General
Complete name : Marcia_trionfale_[rutracker.org]_by_RAmiRA.avi
Format : AVI
Format/Info : Audio Video Interleave
File size : 1.46 GiB
Duration : 1h 55mn
Overall bit rate : 1 817 Kbps
Writing application : VirtualDubModRus 1.5.10.2 (build 2540/release)
Writing library : VirtualDubMod build 2540/release
Video
ID : 0
Format : MPEG-4 Visual
Format profile : Advanced [email protected]
Format settings, BVOP : 1
Format settings, QPel : No
Format settings, GMC : No warppoints
Format settings, Matrix : Custom
Codec ID : XVID
Codec ID/Hint : XviD
Duration : 1h 55mn
Bit rate : 1 615 Kbps
Width : 720 pixels
Height : 400 pixels
Display aspect ratio : 16:9
Frame rate : 25.000 fps
Color space : YUV
Chroma subsampling : 4:2:0
Bit depth : 8 bits
Scan type : Progressive
Compression mode : Lossy
Bits/(Pixel*Frame) : 0.224
Stream size : 1.30 GiB (89%)
Writing library : XviD 1.2.1 (UTC 2008-12-04)
Audio
ID : 1
Format : AC-3
Format/Info : Audio Coding 3
Mode extension : CM (complete main)
Format settings, Endianness : Big
Codec ID : 2000
Duration : 1h 55mn
Bit rate mode : Constant
Bit rate : 192 Kbps
Channel(s) : 2 channels
Channel positions : Front: L R
Sampling rate : 48.0 KHz
Bit depth : 16 bits
Compression mode : Lossy
Stream size : 158 MiB (11%)
Alignment : Split accross interleaves
Interleave, duration : 40 ms (1.00 video frame)
Interleave, preload duration : 500 ms

Скриншот c названием фильма

Скриншоты




Создавать темы 01-Ноя-2015 10:41

[Профиль]  [ЛС] 

astronaut

Стаж: 6 лет

Сообщений: 26

Симпатии: 14

Приятно удивлён, что ценят Марко Беллоккьо.
Смотрел у него "Кулаки в кармане". Интересное кино. Будут желающие, поделюсь.

Создавать темы 03-Ноя-2015 06:26

[Профиль]  [ЛС] 
Показать сообщения:    
Ответить на тему

Текущее время: 18-Дек 21:37

Часовой пояс: UTC + 5



Вы не можете начинать темы
Вы не можете отвечать на сообщения
Вы не можете редактировать свои сообщения
Вы не можете удалять свои сообщения
Вы не можете голосовать в опросах
Вы не можете прикреплять файлы к сообщениям
Вы не можете скачивать файлы