Агенты А.Н.К.Л. / The Man from U.N.C.L.E. (Гай Ричи) [2015, США, Боевик, комедия, приключения, WEB-DL 720p] [Чистый звук] [Original Eng] [Sub Eng]

Ответить на тему
 

ruhal ®

Стаж: 2 года 7 месяцев

Сообщений: 1181

Симпатии: 1836

- -Агенты А.Н.К.Л. / The Man from U.N.C.L.E.- - Страна: США
Жанр: Боевик, комедия, приключения
Год выпуска: 2015
Продолжительность: 01:49:29-Перевод: Профессиональный (дублированный) [Чистый звук]
Cубтитры: английские-Режиссер: Гай Ричи-В ролях: Генри Кавилл, Арми Хаммер, Алисия Викандер, Элизабет Дебики, Хью Грант,
Лука Кальвани, Сильвестр Грот, Джаред Харрис, Кристиан Беркель, Миша Кузнецов,
Гай Уильямс, Марианна Ди Мартино, Джулиан Майкл Деустер, Андреа Каглиши, Риккардо Калваниз-Описание: Наполеон Соло — агент ЦРУ, на счету которого огромное количество успешно проведенных операций.
Он считается одним из лучших секретных агентов во всем мире, и с ним может сравниться
только один человек — самый молодой и перспективный агент КГБ, Илья Курякин.
Их противостояние переросло в настоящую войну, в которой никто не собирается уступать.
Однако обстоятельства складываются так, что непримиримые враги вынуждены стать напарниками.
Это происходит после того как спецслужбы двух стран обнаруживают
международную преступную организацию, которой удалось создать ядерную бомбу…-Качество видео: WEB-DL 720p
Формат видео: MKV
Видео: MPEG4 Video (H264) 1280x530 23.976fps
Аудио: Dolby AC3 48000Hz stereo 192kbps [A: Russian [rus]
Аудио 2: Dolby AC3 48000Hz 6ch 384kbps [A: English [eng]
-

MediaInfo

General
Unique ID : 230250322059503229294711345101330242707 (0xAD389957CBEFC828B192BEA57E78DC93)
Complete name : E:\Films\A6en1y.Unc1e.2015.D.WEB-DL.720p.mkv
Format : Matroska
Format version : Version 4 / Version 2
File size : 3.77 GiB
Duration : 1h 56mn
Overall bit rate : 4 635 Kbps
Encoded date : UTC 2015-10-31 19:36:43
Writing application : mkvmerge v8.5.0 ('Vanishing Act') 64bit
Writing library : libebml v1.3.1 + libmatroska v1.4.2
DURATION : 01:56:26.912000000
NUMBER_OF_FRAMES : 218341
NUMBER_OF_BYTES : 167685888
_STATISTICS_WRITING_APP : mkvmerge v8.5.0 ('Vanishing Act') 64bit
_STATISTICS_WRITING_DATE_UTC : 2015-10-31 19:36:43
_STATISTICS_TAGS : BPS DURATION NUMBER_OF_FRAMES NUMBER_OF_BYTES
Video
ID : 1
Format : AVC
Format/Info : Advanced Video Codec
Format profile : [email protected]
Format settings, CABAC : No
Format settings, ReFrames : 2 frames
Codec ID : V_MPEG4/ISO/AVC
Duration : 1h 56mn
Bit rate : 3 967 Kbps
Width : 1 280 pixels
Height : 530 pixels
Display aspect ratio : 2.40:1
Frame rate mode : Constant
Frame rate : 23.976 fps
Color space : YUV
Chroma subsampling : 4:2:0
Bit depth : 8 bits
Scan type : Progressive
Bits/(Pixel*Frame) : 0.244
Stream size : 3.23 GiB (86%)
Language : English
Default : Yes
Forced : No
Color range : Limited
Color primaries : BT.709
Transfer characteristics : BT.709
Matrix coefficients : BT.709
Audio #1
ID : 2
Format : AC-3
Format/Info : Audio Coding 3
Mode extension : CM (complete main)
Format settings, Endianness : Big
Codec ID : A_AC3
Duration : 1h 56mn
Bit rate mode : Constant
Bit rate : 192 Kbps
Channel(s) : 2 channels
Channel positions : Front: L R
Sampling rate : 48.0 KHz
Compression mode : Lossy
Stream size : 160 MiB (4%)
Language : Russian
Default : Yes
Forced : No
Audio #2
ID : 3
Format : AC-3
Format/Info : Audio Coding 3
Mode extension : CM (complete main)
Format settings, Endianness : Big
Codec ID : A_AC3
Duration : 1h 56mn
Bit rate mode : Constant
Bit rate : 384 Kbps
Channel(s) : 6 channels
Channel positions : Front: L C R, Side: L R, LFE
Sampling rate : 48.0 KHz
Compression mode : Lossy
Stream size : 320 MiB (8%)
Language : English
Default : No
Forced : No
Text
ID : 4
Format : UTF-8
Codec ID : S_TEXT/UTF8
Codec ID/Info : UTF-8 Plain Text
Language : English
Default : No
Forced : No
Menu
00:00:00.000 : en:1
00:15:18.000 : en:2
00:23:10.000 : en:3
00:32:08.000 : en:4
00:40:34.000 : en:5
00:49:06.000 : en:6
00:59:22.000 : en:7
01:08:51.000 : en:8
01:20:27.000 : en:9
01:29:46.000 : en:10
01:43:20.000 : en:11
01:49:22.000 : en:12

Скриншот c названием фильма

Скриншоты






- -

Создавать темы 01-Ноя-2015 14:33

[Профиль]  [ЛС] 

Grock

Стаж: 6 лет 9 месяцев

Сообщений: 637

Симпатии: 113

ruhal, Мего релиз и оформление как всегда на высоте) Спасибо, тоже подключился

Создавать темы 01-Ноя-2015 18:49

[Профиль]  [ЛС] 

hamilion

Стаж: 5 лет 2 месяца

Сообщений: 155

Симпатии: 14

956938ruhal, Мего релиз и оформление как всегда на высоте) Спасибо, тоже подключился
мммдааа

Создавать темы 01-Ноя-2015 19:08

[Профиль]  [ЛС] 

ruhal ®

Стаж: 2 года 7 месяцев

Сообщений: 1181

Симпатии: 1836

Grock, aa

Создавать темы 01-Ноя-2015 19:22

[Профиль]  [ЛС] 
Показать сообщения:    
Ответить на тему

Текущее время: 21-Ноя 15:18

Часовой пояс: UTC + 5



Вы не можете начинать темы
Вы не можете отвечать на сообщения
Вы не можете редактировать свои сообщения
Вы не можете удалять свои сообщения
Вы не можете голосовать в опросах
Вы не можете прикреплять файлы к сообщениям
Вы не можете скачивать файлы