35ый отряд Антимагической академии / Taimadou Gakuen 35 Shiken Shoutai [12 из 12][AniDUB][2015г ,комедия,школа, фэнтези, военный, сверхъестественное][Кавамура Томоюки][Ancord, Jade, Гамлетка Цезаревна, 9й неизвестный][HDTVRip][720p]

Ответить на тему
 

farik9193 ®

Стаж: 5 лет 1 месяц

Сообщений: 501

Симпатии: 47

35ый отряд Антимагической академии / Taimadou Gakuen 35 Shiken Shoutai
-Год: 2015
Жанр: комедия, школа, фэнтези, военный, сверхъестественное
Страна: Япония
Количество серий: 12
Продолжительность: 25 мин.
Дата выпуска: c 08.10.2015-Режиссер: Кавамура Томоюки
Автор оригинала / Сценарист: Янагими Токи
Озвучивание: Ancord, Jade, Гамлетка Цезаревна, 9й неизвестный
Перевод: Jeka
Тайминг и работа со звуком: Felix
Студия: -Описание: 35-е экспериментальное подразделение — одно из военизированных подразделений, обосновавшихся под крылом так называемой «Антимагической академии». Непосредственной задачей этой академии является взращивание бойцов — инквизиторов — способных предотвратить любую магическую угрозу. Однако такое название, как «35-е экспериментальное подразделение», лишь на словах кажется чем-то внушительным. На деле — это сборище эгоцентричных людей с личностными проблемами, людей, не способных к взаимовыгодному сотрудничеству.-Качество: HDTVRip
Формат: MPEG-4
Видео: AVC 1280x720, 23.976 fps, 1 796 Kbps, 16:9
Аудио: 48.0 kHz, AAC, 2 ch, 192 Kbps-

Скриншоты



MediaInfo

General
Complete name                            : N:\Video\[AniDub]_Taimadou_Gakuen_35_Shiken_Shoutai_[720p]_[MVO]\[AniDub]_Taimadou_Gakuen_35_Shiken_Shoutai_[01]_[720p_x264_Aac]_[MVO].mp4
Format                                   : MPEG-4
Format profile                           : Base Media
Codec ID                                 : isom
File size                                : 343 MiB
Duration                                 : 24mn 6s
Overall bit rate mode                    : Variable
Overall bit rate                         : 1 992 Kbps
Encoded date                             : UTC 2015-10-12 10:48:57
Tagged date                              : UTC 2015-10-12 10:48:57
Writing application                      : Yamb 2.1.0.0 [http://yamb.unite-video.com]
Video
ID                                       : 1
Format                                   : AVC
Format/Info                              : Advanced Video Codec
Format profile                           : [email protected]
Format settings, CABAC                   : Yes
Format settings, ReFrames                : 3 frames
Format settings, GOP                     : M=4, N=23
Codec ID                                 : avc1
Codec ID/Info                            : Advanced Video Coding
Duration                                 : 24mn 6s
Bit rate mode                            : Variable
Bit rate                                 : 1 796 Kbps
Maximum bit rate                         : 9 271 Kbps
Width                                    : 1 280 pixels
Height                                   : 720 pixels
Display aspect ratio                     : 16:9
Frame rate mode                          : Variable
Frame rate                               : 23.976 fps
Minimum frame rate                       : 23.976 fps
Maximum frame rate                       : 23.988 fps
Standard                                 : NTSC
Color space                              : YUV
Chroma subsampling                       : 4:2:0
Bit depth                                : 8 bits
Scan type                                : Progressive
Bits/(Pixel*Frame)                       : 0.081
Stream size                              : 310 MiB (90%)
Language                                 : English
Encoded date                             : UTC 2015-10-10 19:23:56
Tagged date                              : UTC 2015-10-12 10:49:03
Audio
ID                                       : 2
Format                                   : AAC
Format/Info                              : Advanced Audio Codec
Format profile                           : LC
Codec ID                                 : 40
Duration                                 : 24mn 6s
Bit rate mode                            : Variable
Bit rate                                 : 192 Kbps
Maximum bit rate                         : 196 Kbps
Channel count                            : 2 channels
Channel positions                        : Front: L R
Sampling rate                            : 48.0 KHz
Compression mode                         : Lossy
Stream size                              : 33.1 MiB (10%)
Language                                 : English
Encoded date                             : UTC 2015-10-12 10:49:02
Tagged date                              : UTC 2015-10-12 10:49:03


Последний раз редактировалось: farik9193 (2016-01-08 18:10), всего редактировалось 5 раз(а)

Создавать темы 02-Ноя-2015 18:51

[Профиль]  [ЛС] 

Топик был перенесен из форума Аниме онгоинги в форум HD, HDTVRip
SNIL

Создавать темы 08-Янв-2016 18:10

 

farik9193 ®

Стаж: 5 лет 1 месяц

Сообщений: 501

Симпатии: 47

долго думал обновлять нет потому что сервер упал

Создавать темы 08-Янв-2016 20:54

[Профиль]  [ЛС] 

SNIL

Стаж: 5 лет 11 месяцев

Сообщений: 2624

Симпатии: 341

farik9193, Если что придётся переформлять (но торрент файл можно будет использовать этот)

Создавать темы 08-Янв-2016 20:59

[Профиль]  [ЛС] 
Показать сообщения:    
Ответить на тему

Текущее время: 14-Дек 18:19

Часовой пояс: UTC + 5



Вы не можете начинать темы
Вы не можете отвечать на сообщения
Вы не можете редактировать свои сообщения
Вы не можете удалять свои сообщения
Вы не можете голосовать в опросах
Вы не можете прикреплять файлы к сообщениям
Вы не можете скачивать файлы