Непригодные для свиданий / Undateable / Сезон: 3 / Серии: 1-4 из 13 (Фил Льюис, Эрик Дин Ситон, Скотт Эллис) [2015, комедия, WEB-DLRip] (MVO : [BaibaKo]) (Original)

Ответить на тему
 

Sunnat1999 ®

Стаж: 4 года 7 месяцев

Сообщений: 756

Симпатии: 416

Непригодные для свиданий / UndateableСезон: 3 Серии: 1-4 из 10-- Год выпуска: 2015
Страна: США
Жанр: комедия
Продолжительность: ~ 00:22:00-Перевод: Профессиональный многоголосый [BaibaKo]
Русские субтитры: нет
Режиссёр: Фил Льюис, Эрик Дин Ситон, Скотт Эллис-В ролях: Крис Д Елия, Брент Морин, Бьянка Кэйлик, Рик Глассман, Рон Фанчес, Дэвид Финн, Бриджит Мендлер, Ева Амурри, Брига Хилэн-Описание: Комедийный сериал расскажет о группе друзей, у которых все не ладится с личной жизнью. Можно даже сказать, что коллеги по несчастью уже согласились со своей участью и даже не предпринимают никаких попыток, а если таковые иногда и случаются, то заведомо их ожидает крах... Но вот однажды к одному из этих парней, Джастину, приезжает профессиональный бездельник и повеса Дэнни Биман. Гость оказывается в окружении чудаков и неудачников, жаждущих романтики. Он начинает учить ребят искусству обольщения.-Доп. информация:
 

-Ссылка на предыдущие и альтернативные раздачи: Сезон-1 Сезон-2-Качество: WEB-DLRip
Формат: AVI
Видео кодек: XviD
Аудио кодек: MP3
Видео: XviD, 1506 kb/s, 720x400
Аудио: Russian: MP3, 192 kb/s (2 ch)
Аудио 2: English: MP3, 192 kb/s (2 ch)
-ВНИМАНИЕ! РАЗДАЧА ВЕДЁТСЯ ПУТЁМ ДОБАВЛЕНИЯ НОВЫХ СЕРИЙ!
ДОБАВЛЕНА 4-я СЕРИЯ. ПОЖАЛУЙСТА ОБНОВИТЕ ТОРРЕНТ!

Как обновить торрент

Когда раздача ведётся путём добавления новых серий, при каждом добавлении создётся новый торрент. Чтобы начать докачку новой серии, пользователям необходимо сделать следующее:
(1) остановить скачивание,
(2) удалить старый торрент у себя из клиента (старые серии удалять не надо),
(3) скачать новый торрент и запустить его у себя в клиенте вместо старого, при этом указать клиенту путь в старую папку, куда и должно происходить скачивание новых серий.
Ваш клиент при этом должен произвести хеширование (проверку) старой папки (если не производит сам - помогите ему сделать это), и будет докачивать только те серии, которых у вас ещё нет. Старые серии при этом не удаляются, а продолжают раздаваться!
Eсли вы уже удалили старые серии, то предотвратить повторную закачку старых серий можно, отжав галочку в соответсвующих местах при запуске нового торрента. По возможности, желательно не удалять старые серии как можно дольше, чтобы релизёр не столько продолжал раздавать старые серии, а смог сконцентрироваться на новых.

MediaInfo

General
Complete name : \Undateable (S03) BaibaKo\Undateable.s03e01.WEB-DLRip.XviD.Rus.Eng.BaibaKo.avi
Format : AVI
Format/Info : Audio Video Interleave
File size : 281 MiB
Duration : 21mn 15s
Overall bit rate : 1 848 Kbps
Writing application : VirtualDubMod 1.5.10.3 | www.virtualdub-fr.org || (build 2550/release)
Writing library : VirtualDubMod build 2550/release
Video
ID : 0
Format : MPEG-4 Visual
Format profile : Advanced [email protected]
Format settings, BVOP : 1
Format settings, QPel : No
Format settings, GMC : No warppoints
Format settings, Matrix : Default (MPEG)
Codec ID : XVID
Codec ID/Hint : XviD
Duration : 21mn 15s
Bit rate : 1 514 Kbps
Width : 720 pixels
Height : 400 pixels
Display aspect ratio : 16:9
Frame rate : 23.976 fps
Color space : YUV
Chroma subsampling : 4:2:0
Bit depth : 8 bits
Scan type : Progressive
Compression mode : Lossy
Bits/(Pixel*Frame) : 0.219
Stream size : 230 MiB (82%)
Writing library : XviD 73
Audio #1
ID : 1
Format : MPEG Audio
Format version : Version 1
Format profile : Layer 3
Codec ID : 55
Codec ID/Hint : MP3
Duration : 21mn 15s
Bit rate mode : Constant
Bit rate : 192 Kbps
Channel(s) : 2 channels
Sampling rate : 48.0 KHz
Compression mode : Lossy
Stream size : 29.2 MiB (10%)
Alignment : Aligned on interleaves
Interleave, duration : 42 ms (1.00 video frame)
Interleave, preload duratio : 504 ms
Writing library : LAME3.99.5
Audio #2
ID : 2
Format : MPEG Audio
Format version : Version 1
Format profile : Layer 3
Codec ID : 55
Codec ID/Hint : MP3
Duration : 14mn 24s
Bit rate mode : Constant
Bit rate : 192 Kbps
Channel(s) : 2 channels
Sampling rate : 48.0 KHz
Compression mode : Lossy
Stream size : 19.8 MiB (7%)
Alignment : Aligned on interleaves
Interleave, duration : 62 ms (1.48 video frame)
Interleave, preload duratio : 504 ms
Writing library : LAME3.99.5
Скриншоты:


Последний раз редактировалось: Sunnat1999 (2015-12-21 09:34), всего редактировалось 1 раз

Создавать темы 03-Ноя-2015 14:38

[Профиль]  [ЛС] 

Sunnat1999 ®

Стаж: 4 года 7 месяцев

Сообщений: 756

Симпатии: 416

ДОБАВЛЕНА 3-я СЕРИЯ. ПОЖАЛУЙСТА ОБНОВИТЕ ТОРРЕНТ!

Создавать темы 19-Дек-2015 06:50

[Профиль]  [ЛС] 

Sunnat1999 ®

Стаж: 4 года 7 месяцев

Сообщений: 756

Симпатии: 416

ДОБАВЛЕНА 4-я СЕРИЯ. ПОЖАЛУЙСТА ОБНОВИТЕ ТОРРЕНТ!

Создавать темы 21-Дек-2015 09:34

[Профиль]  [ЛС] 
Показать сообщения:    
Ответить на тему

Текущее время: 17-Окт 11:14

Часовой пояс: UTC + 5



Вы не можете начинать темы
Вы не можете отвечать на сообщения
Вы не можете редактировать свои сообщения
Вы не можете удалять свои сообщения
Вы не можете голосовать в опросах
Вы не можете прикреплять файлы к сообщениям
Вы не можете скачивать файлы