Ботаны (Ай Ти Рота) / Сезон: 1 / Серии: 1-40 из 60 (Дмитрий Дакович) [2015, Комедия, SATRip,WEB-DLRip]

Ответить на тему
 

Sunnat1999 ®

Стаж: 4 года 7 месяцев

Сообщений: 756

Симпатии: 416

Ботаны (Ай Ти Рота)Серии: 1-40 из 60-- Год выпуска: 2015
Производство: Россия
Жанр: Комедия
Продолжительность: ~ 00:34:00
Режиссёр: Дмитрий Дакович-В ролях: Тимур Ефременков, Герман Черных, Артем Лысков, Константин Давыдов, Дмитрий Жулин, Артём Маркарьян, Сергей Еськин, Сергей Дорохин, Антон Ансимов, Нодар Джанелидзе, Борис Галкин, Анна Здор, Вадим Колганов, Андрей Леонов, Анатолий Завьялов, Иван Оранский, Виктор Бутусов, Денис Матвеев, Назир Жуков, Максим Калужских-Описание: В эпоху интернета зачастую талантливый программист гораздо эффективнее роты спецназа. А если разговор идет о роте программистов за Родину можно не беспокоиться. В сериале "Ботаны" телезритель увидит истории про молодых ребят, которые в ходе сложившихся обстоятельств попадают в армию, а точнее в спецроту «Кибер войск». Это подразделение служит для защиты Родины бескрайних рубежах интернета, что в 21 веке весьма актуально. Главные герои сериала "Ботаны" - молодые парни, для которых армейская жизнь как другая планета, а дисциплина нечто расплывчатое и непонятное. Тут то они и попадают самые нелепые и смешные ситуации. А их командир пытается сделать из зеленых мальчишек настоящих мужчин и воспитать в них достойные качества русского солдата. На протяжении всего сюжета поддерживается противостояние между солдатами, культивирующими силу и выносливость, умение победить соперника в рукопашном бою за счет физической выучки и отваги, которых наши герои презрительно называют их «качками», и «ботанами» научной роты, которые уверены, что сегодняшняя война выигрывается умом, тонким расчетом, математическим и логическим подходом. Сочетание высокого и смешного, драматического и лирического рождает массу забавных ситуаций, и дает возможность зрителям всех возрастов увлеченно следить за перепитиями сюжета.-Доп. информация:
 
-1-20 серии:
Качество: SATRip
Формат: AVI
Видео кодек: XviD
Аудио кодек: AC3
Видео: XviD, 1800 Кбит/с, 720x400
Аудио: AC3, 2 ch, 192 Кбит/с
Серии 21 и далее:
Качество: WEB-DLRip
Формат: AVI
Видео кодек: XviD
Аудио кодек: AC3
Видео: XviD, 1600 Кбит/с, 720x400
Аудио: AC3, 2 ch, 192 Кбит/с
-ВНИМАНИЕ! РАЗДАЧА ВЕДЁТСЯ ПУТЁМ ДОБАВЛЕНИЯ НОВЫХ СЕРИЙ!
ДОБАВЛЕНЫ 37-40 СЕРИИ, ПЕРЕКАЧАЙТЕ ПОЖАЛУЙСТА ТОРРЕНТ!

Как обновить торрент

Когда раздача ведётся путём добавления новых серий, при каждом добавлении создётся новый торрент. Чтобы начать докачку новой серии, пользователям необходимо сделать следующее:
(1) остановить скачивание,
(2) удалить старый торрент у себя из клиента (старые серии удалять не надо),
(3) скачать новый торрент и запустить его у себя в клиенте вместо старого, при этом указать клиенту путь в старую папку, куда и должно происходить скачивание новых серий.
Ваш клиент при этом должен произвести хеширование (проверку) старой папки (если не производит сам - помогите ему сделать это), и будет докачивать только те серии, которых у вас ещё нет. Старые серии при этом не удаляются, а продолжают раздаваться!
Eсли вы уже удалили старые серии, то предотвратить повторную закачку старых серий можно, отжав галочку в соответсвующих местах при запуске нового торрента. По возможности, желательно не удалять старые серии как можно дольше, чтобы релизёр не столько продолжал раздавать старые серии, а смог сконцентрироваться на новых.

MI

General
Complete name : \Ботаны.2015.SATRip(Abakan2000)\Ботаны.1_серия.2015.SATRip(Abakan2000).avi
Format : AVI
Format/Info : Audio Video Interleave
File size : 427 MiB
Duration : 33mn 1s
Overall bit rate : 1 808 Kbps
Writing application : Lavf56.25.101
Video
ID : 0
Format : MPEG-4 Visual
Format profile : Advanced Simple@L5
Format settings, BVOP : 1
Format settings, QPel : No
Format settings, GMC : No warppoints
Format settings, Matrix : Default (H.263)
Codec ID : XVID
Codec ID/Hint : XviD
Duration : 33mn 1s
Bit rate : 1 600 Kbps
Width : 720 pixels
Height : 400 pixels
Display aspect ratio : 16:9
Frame rate : 50.000 fps
Color space : YUV
Chroma subsampling : 4:2:0
Bit depth : 8 bits
Scan type : Progressive
Compression mode : Lossy
Bits/(Pixel*Frame) : 0.111
Stream size : 378 MiB (89%)
Writing library : XviD 67
Audio
ID : 1
Format : AC-3
Format/Info : Audio Coding 3
Mode extension : CM (complete main)
Format settings, Endianness : Big
Codec ID : 2000
Duration : 33mn 1s
Bit rate mode : Constant
Bit rate : 192 Kbps
Channel(s) : 2 channels
Channel positions : Front: L R
Sampling rate : 48.0 KHz
Bit depth : 16 bits
Compression mode : Lossy
Stream size : 45.4 MiB (11%)
Alignment : Aligned on interleaves
Interleave, duration : 32 ms (1.60 video frames)
Скриншоты


Последний раз редактировалось: Sunnat1999 (2016-03-11 02:13), всего редактировалось 8 раз(а)

Создавать темы 03-Ноя-2015 16:05

[Профиль]  [ЛС] 

Sunnat1999 ®

Стаж: 4 года 7 месяцев

Сообщений: 756

Симпатии: 416

ДОБАВЛЕНЫ 21-30 СЕРИИ, ПЕРЕКАЧАЙТЕ ПОЖАЛУЙСТА ТОРРЕНТ!

Создавать темы 16-Ноя-2015 10:41

[Профиль]  [ЛС] 

edgemza

Стаж: 6 лет 4 месяца

Сообщений: 191

Симпатии: 7

Сериал СУПЕР! Смотрится с интересом, главное втянуться и посмотреть первые 2 серии, а потом уже не вас будет "не оторвать"!

Создавать темы 23-Ноя-2015 21:21

[Профиль]  [ЛС] 

Sunnat1999 ®

Стаж: 4 года 7 месяцев

Сообщений: 756

Симпатии: 416

ДОБАВЛЕНЫ 31-34 СЕРИИ, ПЕРЕКАЧАЙТЕ ПОЖАЛУЙСТА ТОРРЕНТ!

Создавать темы 30-Ноя-2015 16:44

[Профиль]  [ЛС] 

Sunnat1999 ®

Стаж: 4 года 7 месяцев

Сообщений: 756

Симпатии: 416

ДОБАВЛЕНЫ 35-36 СЕРИИ, ПЕРЕКАЧАЙТЕ ПОЖАЛУЙСТА ТОРРЕНТ!

Создавать темы 24-Дек-2015 14:40

[Профиль]  [ЛС] 

Sunnat1999 ®

Стаж: 4 года 7 месяцев

Сообщений: 756

Симпатии: 416

ДОБАВЛЕНЫ 37-40 СЕРИИ, ПЕРЕКАЧАЙТЕ ПОЖАЛУЙСТА ТОРРЕНТ!

Создавать темы 28-Дек-2015 12:35

[Профиль]  [ЛС] 
Показать сообщения:    
Ответить на тему

Текущее время: 24-Сен 02:56

Часовой пояс: UTC + 5



Вы не можете начинать темы
Вы не можете отвечать на сообщения
Вы не можете редактировать свои сообщения
Вы не можете удалять свои сообщения
Вы не можете голосовать в опросах
Вы не можете прикреплять файлы к сообщениям
Вы не можете скачивать файлы