Миссия невыполнима: Племя изгоев / Mission: Impossible - Rogue Nation (Кристофер МакКуорри) [2015, США, Боевик, триллер, приключения, HDRip] [iTunes]

Ответить на тему
 

ruhal ®

Стаж: 2 года 7 месяцев

Сообщений: 1181

Симпатии: 1836

- -Миссия невыполнима: Племя изгоев / Mission: Impossible - Rogue Nation- - Страна: США
Жанр: Боевик, триллер, приключения
Год выпуска: 2015
Продолжительность: 01:59:25-Перевод: Дублированный [iTunes]
Cубтитры: нет-Режиссер: Кристофер МакКуорри-В ролях: Том Круз, Джереми Реннер, Саймон Пегг, Алек Болдуин, Ребекка Фергюсон,
Винг Реймз, Шон Харрис, Америка Оливо, Саймон МакБерни, Чжан Цзинчу-Описание: Правительство решает расформировать самый подготовленный и боеспособный отряд,
предназначенный для выполнения миссий любой сложности и секретности - команду Итана "Миссия невыполнима".
Однако в тоже время самому Итану удается обнаружить неизвестный и таинственный синдикат,
о котором только ходили слухи. Как оказалось этот синдикат состоит
из изгоев и таких же специалистов высокого класса, как и сама группа Итана.
Поэтому наш герой собирается совершить последнюю миссию вместе со своей группой
по ликвидации этого таинственного синдиката.
В противном случае синдикат уничтожит Международный Валютный Фонд и мир погрузится в экономический хаос.-Качество видео: HDRip
Формат видео: AVI
Видео: Xvid 720x304 23.976fps 1192kbps
Аудио: Dolby AC3 48000Hz 6ch 384kbps
-

MediaInfo

General
Complete name : E:\Films\PL3m14.Y3g0y.2015.D.HDRip.1.46GB.avi
Format : AVI
Format/Info : Audio Video Interleave
File size : 1.46 GiB
Duration : 2h 11mn
Overall bit rate : 1 586 Kbps
Writing application : VirtualDubMod 1.5.10.2 (build 2540/release)
Writing library : VirtualDubMod build 2540/release
Video
ID : 0
Format : MPEG-4 Visual
Format profile : Advanced [email protected]
Format settings, BVOP : 2
Format settings, QPel : No
Format settings, GMC : No warppoints
Format settings, Matrix : Default (MPEG)
Codec ID : XVID
Codec ID/Hint : XviD
Duration : 2h 11mn
Bit rate : 1 193 Kbps
Width : 720 pixels
Height : 304 pixels
Display aspect ratio : 2.35:1
Frame rate : 23.976 fps
Color space : YUV
Chroma subsampling : 4:2:0
Bit depth : 8 bits
Scan type : Progressive
Compression mode : Lossy
Bits/(Pixel*Frame) : 0.227
Stream size : 1.10 GiB (75%)
Writing library : XviD 1.2.1 (UTC 2008-12-04)
Audio
ID : 1
Format : AC-3
Format/Info : Audio Coding 3
Mode extension : CM (complete main)
Format settings, Endianness : Big
Codec ID : 2000
Duration : 2h 11mn
Bit rate mode : Constant
Bit rate : 384 Kbps
Channel(s) : 6 channels
Channel positions : Front: L C R, Side: L R, LFE
Sampling rate : 48.0 KHz
Compression mode : Lossy
Stream size : 361 MiB (24%)
Alignment : Split accross interleaves
Interleave, duration : 42 ms (1.00 video frame)
Interleave, preload duration : 500 ms

Скриншот c названием фильма

Скриншоты



- -


Последний раз редактировалось: ruhal (2015-12-13 14:26), всего редактировалось 3 раз(а)

Создавать темы 03-Ноя-2015 19:19

[Профиль]  [ЛС] 

ruhal ®

Стаж: 2 года 7 месяцев

Сообщений: 1181

Симпатии: 1836

Прошу модеров прилепить.

Комментарий от Grock


Готово

Создавать темы 03-Ноя-2015 19:33

[Профиль]  [ЛС] 

Faxa

Стаж: 7 лет 6 месяцев

Сообщений: 115

Симпатии: 4

Как же быстро летит время... Будто вчера смотрел Протокол Фантом.

Создавать темы 03-Ноя-2015 19:57

[Профиль]  [ЛС] 

Jason232

Стаж: 2 года 2 месяца

Сообщений: 3

Симпатии: 1

Есть лицуха у меня кому над если)

Создавать темы 03-Ноя-2015 21:38

[Профиль]  [ЛС] 

Grock

Стаж: 6 лет 9 месяцев

Сообщений: 637

Симпатии: 113

ruhal, Подправил перевод

Создавать темы 04-Ноя-2015 11:45

[Профиль]  [ЛС] 

Homercompany

Стаж: 7 лет 8 месяцев

Сообщений: 234

Симпатии: 7

Jason232 а это что не лицуха чтоли?

Создавать темы 07-Ноя-2015 12:47

[Профиль]  [ЛС] 

ruhal ®

Стаж: 2 года 7 месяцев

Сообщений: 1181

Симпатии: 1836

957473Jason232 а это что не лицуха чтоли?
по его мнению видимо нет

Создавать темы 07-Ноя-2015 14:27

[Профиль]  [ЛС] 

Morozec

Стаж: 1 год 4 месяца

Сообщений: 1

Раздача будет?

Создавать темы 17-Апр-2017 14:02

[Профиль]  [ЛС] 
Показать сообщения:    
Ответить на тему

Текущее время: 25-Ноя 14:42

Часовой пояс: UTC + 5



Вы не можете начинать темы
Вы не можете отвечать на сообщения
Вы не можете редактировать свои сообщения
Вы не можете удалять свои сообщения
Вы не можете голосовать в опросах
Вы не можете прикреплять файлы к сообщениям
Вы не можете скачивать файлы