Реверс 666 / Exeter (Маркус Ниспел) [2015, США, Ужасы, Триллер, HDRip] [Чистый звук]

Ответить на тему
 

ruhal ®

Стаж: 2 года 6 месяцев

Сообщений: 1181

Симпатии: 1836

-Реверс 666 / Exeter
-<<Чудный День для Экзорцизма>>- Страна: США
Жанр: Ужасы, Триллер
Год выпуска: 2015
Продолжительность: 01:31:40-Перевод: Профессиональный (дублированный) Чистый звук
Cубтитры: нет-Режиссер: Маркус Ниспел-В ролях: Стивен Лэнг, Бретт Дир, Бриттани Каррен, Гейдж Голайтли, Кевин Чэпмен, Келли Блатц, Мередит Прунти, Дженнифер Сайпс, Эшли Трамонте, Джаррет ЛеМастер-Описание: Группа подростков во время пьяной вечеринки находят старую аудиозапись и ради прикола решают проиграть ее в обратном порядке, тем самым они случайно выпускает на волю злого духа, который начинает вселяться в них по одному…-Качество видео: HDRip
Формат видео: AVI
Видео: Xvid 720x400 23.976fps 1937kbps
Аудио: Dolby AC3 48000Hz stereo 192kbps
-

MediaInfo

General
Complete name : E:\Films\Revers.666.2015.D.HDRip.avi
Format : AVI
Format/Info : Audio Video Interleave
File size : 1.37 GiB
Duration : 1h 31mn
Overall bit rate : 2 139 Kbps
Writing application : VirtualDubMod 1.5.10.2 (build 2540/release)
Writing library : VirtualDubMod build 2540/release
Video
ID : 0
Format : MPEG-4 Visual
Format profile : Advanced [email protected]
Format settings, BVOP : 2
Format settings, QPel : No
Format settings, GMC : No warppoints
Format settings, Matrix : Default (MPEG)
Codec ID : XVID
Codec ID/Hint : XviD
Duration : 1h 31mn
Bit rate : 1 938 Kbps
Width : 720 pixels
Height : 400 pixels
Display aspect ratio : 16:9
Frame rate : 23.976 fps
Color space : YUV
Chroma subsampling : 4:2:0
Bit depth : 8 bits
Scan type : Progressive
Compression mode : Lossy
Bits/(Pixel*Frame) : 0.281
Stream size : 1.24 GiB (91%)
Writing library : XviD 1.2.1 (UTC 2008-12-04)
Audio
ID : 1
Format : AC-3
Format/Info : Audio Coding 3
Mode extension : CM (complete main)
Format settings, Endianness : Big
Codec ID : 2000
Duration : 1h 31mn
Bit rate mode : Constant
Bit rate : 192 Kbps
Channel(s) : 2 channels
Channel positions : Front: L R
Sampling rate : 48.0 KHz
Compression mode : Lossy
Stream size : 126 MiB (9%)
Alignment : Split accross interleaves
Interleave, duration : 42 ms (1.00 video frame)
Interleave, preload duration : 500 ms

Скриншоты


Создавать темы 04-Ноя-2015 19:59

[Профиль]  [ЛС] 

ElATE

Стаж: 2 года 3 месяца

Сообщений: 19

Симпатии: 39

Добротным фильмом ужасов этот не является точно. Триллером средним вполне может сойти. Мистика присутствует. Особенно понравится тем, кто любит всякого рода присутствия духов, различные обряды и подходящую для всего этого обстановку в виду упразднённого образа психической больницы. Игра актёров посредственная. Поведение героев сопровождается отменным идиотизмом. Мысль режиссёра неплохая, есть подвох. И самым интересным представляется обнаружить и разгадать эту тайну всего. Концовка продумана тоже. Обязательно досмотреть полностью.

Создавать темы 12-Ноя-2015 20:44

[Профиль]  [ЛС] 
Показать сообщения:    
Ответить на тему

Текущее время: 18-Окт 01:38

Часовой пояс: UTC + 5



Вы не можете начинать темы
Вы не можете отвечать на сообщения
Вы не можете редактировать свои сообщения
Вы не можете удалять свои сообщения
Вы не можете голосовать в опросах
Вы не можете прикреплять файлы к сообщениям
Вы не можете скачивать файлы