Девушка без комплексов / Trainwreck (Джудд Апатоу) [2015, США, Комедия, Мелодрама, HDRip] [iTunes]

Ответить на тему
 

Hurracan ®

Стаж: 1 год 11 месяцев

Сообщений: 79

Симпатии: 80

Девушка без комплексов / Trainwreck
Страна: США
Жанр: Комедия, Мелодрама
Год выпуска: 2015
Продолжительность: 02:04:46
Перевод: Дублированное [iTunes]
Cубтитры: нет
Режиссер: Джудд Апатоу
В ролях: Дэйв Аттелль, Тильда Суинтон, Эзра Миллер, Джон Сина, Бри Ларсон, Билл Хейдер, Колин Куинн, Эми Бет Шумер, Ванесса Байер, Майк Бирбиглия
Описание: У симпатичной девушки Эми никогда не было серьезных отношений. Она придерживается свободных взглядов и обычно не ходит дважды с одним парнем на свидание. Будучи сотрудницей крупного мужского издания, она получает задание от шефа написать статью о спортивном враче Ароне. Эми и не рассчитывала, что деловая встреча с доктором изменит ее жизнь.
Доп. информация:
Сценаристы: Эми Бет Шумер
Продюсеры: Бэрри Мендел, Джудд Апатоу, Ким Карамел
Бюджет: $35 000 000
Рейтинг КиноПоиск.Ru: 6.054 (4342)
Рейтинг IMDb: 6.6 (41343)
Качество видео: HDRip
Формат видео: AVI
Видео: Xvid 720x304 23.976fps 1276kbps
Аудио: Dolby AC3 48000Hz 6ch 384kbps

MediaInfo

General
Complete name : C:\Users\Hurracan\Downloads\Video\D3Bywk4.6e3.K0mpP0m1c0B.2015.D.HDRip.1.46GB.avi
Format : AVI
Format/Info : Audio Video Interleave
File size : 1.45 GiB
Duration : 2h 4mn
Overall bit rate : 1 669 Kbps
Writing application : VirtualDubMod 1.5.10.2 (build 2540/release)
Writing library : VirtualDubMod build 2540/release
Video
ID : 0
Format : MPEG-4 Visual
Format profile : Advanced [email protected]
Format settings, BVOP : 2
Format settings, QPel : No
Format settings, GMC : No warppoints
Format settings, Matrix : Default (MPEG)
Codec ID : XVID
Codec ID/Hint : XviD
Duration : 2h 4mn
Bit rate : 1 276 Kbps
Width : 720 pixels
Height : 304 pixels
Display aspect ratio : 2.35:1
Frame rate : 23.976 fps
Color space : YUV
Chroma subsampling : 4:2:0
Bit depth : 8 bits
Scan type : Progressive
Compression mode : Lossy
Bits/(Pixel*Frame) : 0.243
Stream size : 1.11 GiB (76%)
Writing library : XviD 1.2.1 (UTC 2008-12-04)
Audio
ID : 1
Format : AC-3
Format/Info : Audio Coding 3
Mode extension : CM (complete main)
Format settings, Endianness : Big
Codec ID : 2000
Duration : 2h 4mn
Bit rate mode : Constant
Bit rate : 384 Kbps
Channel(s) : 6 channels
Channel positions : Front: L C R, Side: L R, LFE
Sampling rate : 48.0 KHz
Compression mode : Lossy
Stream size : 342 MiB (23%)
Alignment : Split accross interleaves
Interleave, duration : 42 ms (1.00 video frame)
Interleave, preload duration : 500 ms

Скриншоты





Последний раз редактировалось: Hurracan (2015-11-07 01:05), всего редактировалось 1 раз

Создавать темы 05-Ноя-2015 11:32

[Профиль]  [ЛС] 

totsamiy

Стаж: 5 лет 3 месяца

Сообщений: 145

Симпатии: 22

Дублированное [iTunes]

Создавать темы 05-Ноя-2015 20:17

[Профиль]  [ЛС] 
Показать сообщения:    
Ответить на тему

Текущее время: 20-Сен 03:23

Часовой пояс: UTC + 5



Вы не можете начинать темы
Вы не можете отвечать на сообщения
Вы не можете редактировать свои сообщения
Вы не можете удалять свои сообщения
Вы не можете голосовать в опросах
Вы не можете прикреплять файлы к сообщениям
Вы не можете скачивать файлы