Озабоченные, или Любовь зла / Сезон: 1 / Серии: 1-21 из 21 (Борис Хлебников) [2015, Комедия, WEB-DLRip]

Ответить на тему
 

Sunnat1999 ®

Стаж: 4 года 9 месяцев

Сообщений: 756

Симпатии: 416

Озабоченные, или Любовь злаСезон: 1 / Серии: 1-21 из 21-- Год выпуска: 2015
Производство: Россия, Comedy Club Production
Жанр: Комедия
Продолжительность: ~ 00:24:00
Режиссёр: Борис Хлебников-В ролях: Мария Шалаева, Евгения Калинец, Ольга Дибцева, Юрий Колокольников, Николай Шрайбер, Иван Шмаков, Сергей Бурунов, Константин Желдин, Евгений Цыганов, Борис Каморзин, Роман Волобуев, Евгений Сытый, Елена Валюшкина, Евгений Муравич, Альбина Тиханова, Донатас Грудович, Сергей Астахов, Бесо Гатаев, Александр Никольский (II), Анна Очкова, Илья Маланин, Михаил Куряев, Руслан Ягудин, Александр Хованский (II), Анна Легчилова, Мария Малиновская, Геннадий Матвеев, Елена Альмяшева, Анна Котова, Екатерина Берлинская-Описание: История простой девушки из Екатеринбурга Саше Гвоздиковой. Осознав, что в жизни нужно что-то менять, Саша уезжает в Москву, бросив скучную работу и женатого любовника. Саша пишет рассказы и мечтает, чтобы их опубликовали, но переоценивает свой писательский талант. Вместе с Сашей в Москве живут две ее лучшие подруги из Екатеринбурга, Катя и Алена. Сюжет истории, снятой одновременно и смешно, и лирично, вертится вокруг трех героинь, которые пытаются найти себя в столичной жизни и в отношениях.-Доп. информация:
 
Премьера 9 ноября 2015 г.
-Качество: WEB-DLRip
Формат: AVI
Видео кодек: XviD
Аудио кодек: AC3
Видео: XviD, 1542 kb/s, 720x400
Аудио: AC3, 128 kb/s (2 ch)
-ВНИМАНИЕ! РАЗДАЧА ВЕДЁТСЯ ПУТЁМ ДОБАВЛЕНИЯ НОВЫХ СЕРИЙ!
ДОБАВЛЕНЫ 13-21 СЕРИИ, ПЕРЕКАЧАЙТЕ ПОЖАЛУЙСТА ТОРРЕНТ!

Как обновить торрент

Когда раздача ведётся путём добавления новых серий, при каждом добавлении создётся новый торрент. Чтобы начать докачку новой серии, пользователям необходимо сделать следующее:
(1) остановить скачивание,
(2) удалить старый торрент у себя из клиента (старые серии удалять не надо),
(3) скачать новый торрент и запустить его у себя в клиенте вместо старого, при этом указать клиенту путь в старую папку, куда и должно происходить скачивание новых серий.
Ваш клиент при этом должен произвести хеширование (проверку) старой папки (если не производит сам - помогите ему сделать это), и будет докачивать только те серии, которых у вас ещё нет. Старые серии при этом не удаляются, а продолжают раздаваться!
Eсли вы уже удалили старые серии, то предотвратить повторную закачку старых серий можно, отжав галочку в соответсвующих местах при запуске нового торрента. По возможности, желательно не удалять старые серии как можно дольше, чтобы релизёр не столько продолжал раздавать старые серии, а смог сконцентрироваться на новых.

MI

Общее
Полное имя : \Озабоченные или любовь зла.2015.WEB-DLRip\01.serija.avi
Формат : AVI
Формат/Информация : Audio Video Interleave
Размер файла : 325 Мбайт
Продолжительность : 26 м.
Общий поток : 1703 Кбит/сек
Программа кодирования : VirtualDubMod 1.5.10.3 | www.virtualdub-fr.org || (build 2550/release)
Библиотека кодирования : VirtualDubMod build 2550/release
Видео
Идентификатор : 0
Формат : MPEG-4 Visual
Профиль формата : Advanced [email protected]
Параметр BVOP формата : 2
Параметр QPel формата : Нет
Параметр GMC формата : Без точки перехода
Параметр матрицы формата : Default (MPEG)
Идентификатор кодека : XVID
Идентификатор кодека/Подсказка : XviD
Продолжительность : 26 м.
Битрейт : 1501 Кбит/сек
Ширина : 720 пикселей
Высота : 400 пикселей
Соотношение сторон : 16:9
Частота кадров : 25,000 кадров/сек
Цветовое пространство : YUV
Субдискретизация насыщенности : 4:2:0
Битовая глубина : 8 бит
Тип развёртки : Прогрессивная
Метод сжатия : С потерями
Бит/(Пиксели*Кадры) : 0.208
Размер потока : 286 Мбайт (88%)
Библиотека кодирования : XviD 1.2.1 (UTC 2008-12-04)
Аудио
Идентификатор : 1
Формат : AC-3
Формат/Информация : Audio Coding 3
Расширение режима : CM (complete main)
Параметр Endianness формата : Big
Идентификатор кодека : 2000
Продолжительность : 26 м.
Вид битрейта : Постоянный
Битрейт : 192 Кбит/сек
Каналы : 2 канала
Расположение каналов : Front: L R
Частота : 44,1 КГц
Битовая глубина : 16 бит
Метод сжатия : С потерями
Размер потока : 36,6 Мбайт (11%)
Выравнивание : Разделение по промежуткам
Продолжительность промежутка : 40 мс. (1,00 видеокадр)
Время предзагрузки промежутка : 500 мс.
Скриншоты


Последний раз редактировалось: Sunnat1999 (2016-02-06 12:36), всего редактировалось 13 раз(а)

Создавать темы 05-Ноя-2015 22:04

[Профиль]  [ЛС] 

Mehti

Стаж: 5 лет 7 месяцев

Сообщений: 140

Симпатии: 17

на 4ой фоте Влад Кадони)))

Создавать темы 07-Ноя-2015 10:46

[Профиль]  [ЛС] 

Sunnat1999 ®

Стаж: 4 года 9 месяцев

Сообщений: 756

Симпатии: 416

ДОБАВЛЕНА 2 СЕРИЯ, ПЕРЕКАЧАЙТЕ ПОЖАЛУЙСТА ТОРРЕНТ!

Создавать темы 11-Ноя-2015 16:08

[Профиль]  [ЛС] 

Sunnat1999 ®

Стаж: 4 года 9 месяцев

Сообщений: 756

Симпатии: 416

ДОБАВЛЕНА 3 СЕРИЯ, ПЕРЕКАЧАЙТЕ ПОЖАЛУЙСТА ТОРРЕНТ!

Создавать темы 12-Ноя-2015 16:43

[Профиль]  [ЛС] 

Sunnat1999 ®

Стаж: 4 года 9 месяцев

Сообщений: 756

Симпатии: 416

ДОБАВЛЕНА 4 СЕРИЯ, ПЕРЕКАЧАЙТЕ ПОЖАЛУЙСТА ТОРРЕНТ!

Создавать темы 13-Ноя-2015 09:39

[Профиль]  [ЛС] 

Sunnat1999 ®

Стаж: 4 года 9 месяцев

Сообщений: 756

Симпатии: 416

ДОБАВЛЕНА 5 СЕРИЯ, ПЕРЕКАЧАЙТЕ ПОЖАЛУЙСТА ТОРРЕНТ!

Создавать темы 17-Ноя-2015 10:21

[Профиль]  [ЛС] 

Sunnat1999 ®

Стаж: 4 года 9 месяцев

Сообщений: 756

Симпатии: 416

ДОБАВЛЕНА 6 СЕРИЯ, ПЕРЕКАЧАЙТЕ ПОЖАЛУЙСТА ТОРРЕНТ!

Создавать темы 18-Ноя-2015 19:07

[Профиль]  [ЛС] 

Sunnat1999 ®

Стаж: 4 года 9 месяцев

Сообщений: 756

Симпатии: 416

ДОБАВЛЕНЫ 7-8 СЕРИИ, ПЕРЕКАЧАЙТЕ ПОЖАЛУЙСТА ТОРРЕНТ!

Создавать темы 20-Ноя-2015 11:38

[Профиль]  [ЛС] 

Sunnat1999 ®

Стаж: 4 года 9 месяцев

Сообщений: 756

Симпатии: 416

ДОБАВЛЕНЫ 9-11 СЕРИИ, ПЕРЕКАЧАЙТЕ ПОЖАЛУЙСТА ТОРРЕНТ!

Создавать темы 26-Ноя-2015 10:33

[Профиль]  [ЛС] 

Sunnat1999 ®

Стаж: 4 года 9 месяцев

Сообщений: 756

Симпатии: 416

ДОБАВЛЕНА 12 СЕРИЯ, ПЕРЕКАЧАЙТЕ ПОЖАЛУЙСТА ТОРРЕНТ!

Создавать темы 27-Ноя-2015 17:22

[Профиль]  [ЛС] 

Sunnat1999 ®

Стаж: 4 года 9 месяцев

Сообщений: 756

Симпатии: 416

ДОБАВЛЕНЫ 13-21 СЕРИИ, ПЕРЕКАЧАЙТЕ ПОЖАЛУЙСТА ТОРРЕНТ!

Создавать темы 06-Дек-2015 08:27

[Профиль]  [ЛС] 
Показать сообщения:    
Ответить на тему

Текущее время: 13-Дек 02:35

Часовой пояс: UTC + 5



Вы не можете начинать темы
Вы не можете отвечать на сообщения
Вы не можете редактировать свои сообщения
Вы не можете удалять свои сообщения
Вы не можете голосовать в опросах
Вы не можете прикреплять файлы к сообщениям
Вы не можете скачивать файлы