Жизнь непредсказуема / Life Unexpected / Сезон: 1-2 / Серии: 1-26 из 26 (Джерри Ливайн, Ник Марк, Гари Фледер) [2010, драма, WEB-DLRip] (MVO : SET) (Original)

Ответить на тему
 

inkus ®

Стаж: 7 лет 3 месяца

Сообщений: 50

Симпатии: 39

Жизнь непредсказуема / Life Unexpected
Год выпуска: 2010
Страна: США, Канада
Жанр: драма
Продолжительность: 00:42:00
Перевод: Профессиональный многоголосый закадровый SET
Русские субтитры: нет
Режиссёр: Джерри Ливайн, Ник Марк, Гари Фледер
В ролях: Бритт Робертсон, Керр Смит, Шири Эпплби, Ксения Соло, Остин Басис, Кристоффер Полаха, Эмма Колфилд, Регги Остин, Рафи Гаврон, Эрин Карплак
Описание: Рано повзрослевшая 15-летняя Лакс решила предпочесть приёмным семьям самостоятельную жизнь. Чтобы выйти из правовых лабиринтов к собственной независимости, девушке даже пришлось разыскать в Портленде своего тридцатилетнего биологического отца, а позже и маму. Но суд неуклонен, вместо долгожданной свободы, вплоть до наступления совершеннолетия Лакс, поручает подростка на воспитание несостоявшимся родителям.
Доп. информация: Сериал завершён!
Качество: WEB-DLRip
Формат: AVI
Видео кодек: XviD
Аудио кодек: MPEG Audio
Видео: 720x400 (1.80:1), 23.976 fps, XviD build 50 ~1498 kbps avg, 0.22 bit/pixel
Аудио: Аудио#1: 48 kHz, MPEG Layer 3, 2 ch, ~128.00 kbps avg | Русский, многоголосый закадровый
Аудио 2: 48 kHz, MPEG Layer 3, 2 ch, ~124.43 kbps avg | Английский, оригинальная дорожка

MediaInfo

Общее
Полное имя : F:\1 мои раздачи торент\Life Unexpected\Life Unexpected_S01_E01[tapochek.net] (R.G. Cinema-TV).avi
Формат : AVI
Формат/Информация : Audio Video Interleave
Размер файла : 536 Мбайт
Продолжительность : 42 м.
Общий поток : 1770 Кбит/сек
Программа кодирования : VirtualDubMod 1.5.10.2 (build 2540/release)
Библиотека кодирования : VirtualDubMod build 2540/release
Видео
Идентификатор : 0
Формат : MPEG-4 Visual
Профиль формата : Advanced [email protected]
Параметр BVOP формата : 1
Параметр QPel формата : Нет
Параметр GMC формата : Без точки перехода
Параметр матрицы формата : Default (MPEG)
Идентификатор кодека : XVID
Идентификатор кодека/Подсказка : XviD
Продолжительность : 42 м.
Битрейт : 1500 Кбит/сек
Ширина : 720 пикселей
Высота : 400 пикселей
Соотношение сторон : 16:9
Частота кадров : 23,976 кадра/сек
Цветовое пространство : YUV
Субдискретизация насыщенности : 4:2:0
Битовая глубина : 8 бит
Тип развёртки : Прогрессивная
Метод сжатия : С потерями
Бит/(Пиксели*Кадры) : 0.217
Размер потока : 454 Мбайт (85%)
Библиотека кодирования : XviD 1.2.1 (UTC 2008-12-04)
Аудио #1
Идентификатор : 1
Формат : MPEG Audio
Версия формата : Version 1
Профиль формата : Layer 3
Режим : Joint stereo
Идентификатор кодека : 55
Идентификатор кодека/Подсказка : MP3
Продолжительность : 42 м.
Вид битрейта : Постоянный
Битрейт : 128 Кбит/сек
Каналы : 2 канала
Частота : 48,0 КГц
Метод сжатия : С потерями
Размер потока : 38,8 Мбайт (7%)
Выравнивание : Соединение по промежуткам
Продолжительность промежутка : 42 мс. (1,00 видеокадр)
Время предзагрузки промежутка : 504 мс.
Библиотека кодирования : LAME3.98r
Настройки программы : -m j -V 4 -q 3 -lowpass 18 -b 128
Аудио #2
Идентификатор : 2
Формат : MPEG Audio
Версия формата : Version 1
Профиль формата : Layer 3
Режим : Joint stereo
Идентификатор кодека : 55
Идентификатор кодека/Подсказка : MP3
Продолжительность : 42 м.
Вид битрейта : Постоянный
Битрейт : 128 Кбит/сек
Каналы : 2 канала
Частота : 48,0 КГц
Метод сжатия : С потерями
Размер потока : 38,8 Мбайт (7%)
Выравнивание : Соединение по промежуткам
Продолжительность промежутка : 42 мс. (1,00 видеокадр)
Время предзагрузки промежутка : 504 мс.

Скриншоты



Создавать темы 06-Ноя-2015 19:25

[Профиль]  [ЛС] 
Показать сообщения:    
Ответить на тему

Текущее время: 20-Авг 12:55

Часовой пояс: UTC + 5



Вы не можете начинать темы
Вы не можете отвечать на сообщения
Вы не можете редактировать свои сообщения
Вы не можете удалять свои сообщения
Вы не можете голосовать в опросах
Вы не можете прикреплять файлы к сообщениям
Вы не можете скачивать файлы