Наполеон и Жозефина: История любви / Napoleon and Josephine: A Love Story / Сезон: 1 / Серии: 1-3 из 3 (Ричард Т. Хеффрон) [1987, Исторический, мелодрама, DVDRip] (DUB : David L. Wolper Productions, Warner Bros. Televisi)

Ответить на тему
 

Чингиз ®

Стаж: 5 лет 10 месяцев

Сообщений: 37

Симпатии: 20

Наполеон и Жозефина: История любви / Napoleon and Josephine: A Love Story
Год выпуска: 1987
Страна: США, Франция
Жанр: Исторический, мелодрама
Продолжительность: 3 x ~ 01:26:00
Перевод: Полное дублирование Доп. инфо о переводе David L. Wolper Productions, Warner Bros. Televisi
Русские субтитры: нет
Режиссёр: Ричард Т. Хеффрон
В ролях: Арманд Ассанте, Жаклин Биссет, Стефани Бичем, Энтони Хиггинс, Патрик Кэссиди, Энтони Перкинс, Уильям Лакинг, Жан-Пьер Стюарт, Джон Виккери, Джейн Лапотэйр, Николас Грейс
Описание: Наполеон Бонапарт был талантливым полководцем, стремившимся поднять Францию из хаоса и сделать ее самым могущественным государством в Европе. Он командовал армией, которую, казалось, невозможно было остановить — вскоре судьба всего континента оказалась зажатой в кулаке низкорослого и деспотичного корсиканца. Гиперамбициозность, честолюбие и сила позволили Наполеону провозгласить себя императором. Но император не устоял, когда на горизонте появилась опытная кокетка! Привлекательная вдова, мать двоих взрослых детей, Жозефина была старше императора. Наполеону пришлось поступиться своими принципами ради любви к ней, ведь муж Жозефины был казненным аристократом, политическим врагом Наполеона. С самой первой
Качество: DVDRip
Формат: AVI
Видео кодек: XviD
Аудио кодек: AC3
Видео: XviD, ~ 2080 Кбит/с, 704Х528
Аудио: Русский, английский (АС3, 2 ch, 160 Кбит/с)
Субтитры: отсутствуют

MediaInfo

General
Complete name : E:\Кино\Для закачки\Наполеон и Жозефина\1 серия.avi
Format : AVI
Format/Info : Audio Video Interleave
File size : 1.57 GiB
Duration : 1h 27mn
Overall bit rate : 2 573 Kbps
Writing application : VirtualDubMod 1.5.10.2 (build 2540/release)
Writing library : VirtualDubMod build 2540/release
Video
ID : 0
Format : MPEG-4 Visual
Format profile : Advanced [email protected]
Format settings, BVOP : 1
Format settings, QPel : No
Format settings, GMC : No warppoints
Format settings, Matrix : Default (MPEG)
Codec ID : XVID
Codec ID/Hint : XviD
Duration : 1h 27mn
Bit rate : 2 074 Kbps
Width : 704 pixels
Height : 528 pixels
Display aspect ratio : 4:3
Frame rate : 25.000 fps
Color space : YUV
Chroma subsampling : 4:2:0
Bit depth : 8 bits
Scan type : Progressive
Compression mode : Lossy
Bits/(Pixel*Frame) : 0.223
Stream size : 1.26 GiB (81%)
Writing library : XviD 1.2.1 (UTC 2008-12-04)
Audio #1
ID : 1
Format : AC-3
Format/Info : Audio Coding 3
Mode extension : CM (complete main)
Codec ID : 2000
Duration : 1h 27mn
Bit rate mode : Constant
Bit rate : 160 Kbps
Channel(s) : 2 channels
Channel positions : Front: L R
Sampling rate : 48.0 KHz
Bit depth : 16 bits
Compression mode : Lossy
Stream size : 99.9 MiB (6%)
Alignment : Aligned on interleaves
Interleave, duration : 40 ms (1.00 video frame)
Interleave, preload duration : 512 ms
Audio #2
ID : 2
Format : AC-3
Format/Info : Audio Coding 3
Mode extension : CM (complete main)
Codec ID : 2000
Duration : 1h 27mn
Bit rate mode : Constant
Bit rate : 160 Kbps
Channel(s) : 2 channels
Channel positions : Front: L R
Sampling rate : 48.0 KHz
Bit depth : 16 bits
Compression mode : Lossy
Delay relative to video : 500ms
Stream size : 99.9 MiB (6%)
Alignment : Split accross interleaves
Interleave, duration : 40 ms (1.00 video frame)
Interleave, preload duration : 500 ms
Audio #3
ID : 3
Format : AC-3
Format/Info : Audio Coding 3
Mode extension : CM (complete main)
Codec ID : 2000
Duration : 1h 27mn
Bit rate mode : Constant
Bit rate : 160 Kbps
Channel(s) : 2 channels
Channel positions : Front: L R
Sampling rate : 48.0 KHz
Bit depth : 16 bits
Compression mode : Lossy
Stream size : 99.9 MiB (6%)
Alignment : Split accross interleaves
Interleave, duration : 40 ms (1.00 video frame)
Interleave, preload duration : 500 ms

Скриншоты

Создавать темы 07-Ноя-2015 08:21

[Профиль]  [ЛС] 
Показать сообщения:    
Ответить на тему

Текущее время: 15-Дек 17:21

Часовой пояс: UTC + 5



Вы не можете начинать темы
Вы не можете отвечать на сообщения
Вы не можете редактировать свои сообщения
Вы не можете удалять свои сообщения
Вы не можете голосовать в опросах
Вы не можете прикреплять файлы к сообщениям
Вы не можете скачивать файлы