Монстервилль / R.L. Stine's Monsterville: The Cabinet of Souls (Питер ДеЛуис) [2015, США, комедия, HDRip] (MVO) (Sub Rus)

Ответить на тему
 

lucky999 ®

Стаж: 2 года

Сообщений: 32

Симпатии: 43

Монстервилль / R.L. Stine's Monsterville: The Cabinet of Souls
Страна: США
Жанр: комедия
Год выпуска: 2015
Продолжительность: 01:25:52
Перевод: Профессиональный (многоголосый закадровый)
Cубтитры: русские
Режиссер: Питер ДеЛуис
В ролях: Кэтрин МакНамара, Дав Камерон, Райан МакКэртан, Лэйн МакНил, Бриана Бакмастер, Тиффани Эспенсен, Фиона Врум, Карин Коновал, Браден Лемастерс, Шон Квон
Описание: Когда путешествующий Зал Ужасов прибывает в Дэнвилль, друзья из старшей школы решают посетить ужасное шоу. Монстры, зомби и упыри на самом деле похожи на реальных существ, а зловещий шоумен Доктор Хистерия и его очаровательная помощница Лилит реально знают, как напугать людей. Но вдруг Бет обнаруживает странное помещение за кулисами, где таятся души потерянных подростков. И теперь только группа друзей может помочь душам, пока они не оказались заперты там навсегда.
Доп. информация: IMDB рейтинг: 6.3/10
КиноПоиск рейтинг: 0.0/10
Качество видео: HDRip
Формат видео: AVI
Видео: Xvid 720x400 23.98fps 1821kbps [Video 0]
Аудио: Dolby AC3 48000Hz 6ch 448kbps [Audio 1]

MediaInfo

General
Complete name : E:\torrent\Монстервилль 2015.HDRip.avi
Format : AVI
Format/Info : Audio Video Interleave
File size : 1.37 GiB
Duration : 1h 25mn
Overall bit rate : 2 279 Kbps
Writing application : VirtualDubMod 1.5.10.2 (build 2540/release)
Writing library : VirtualDubMod build 2540/release
Video
ID : 0
Format : MPEG-4 Visual
Format profile : Advanced [email protected]
Format settings, BVOP : 2
Format settings, QPel : No
Format settings, GMC : No warppoints
Format settings, Matrix : Default (MPEG)
Codec ID : XVID
Codec ID/Hint : XviD
Duration : 1h 25mn
Bit rate : 1 822 Kbps
Width : 720 pixels
Height : 400 pixels
Display aspect ratio : 16:9
Frame rate : 23.976 fps
Color space : YUV
Chroma subsampling : 4:2:0
Bit depth : 8 bits
Scan type : Progressive
Compression mode : Lossy
Bits/(Pixel*Frame) : 0.264
Stream size : 1.09 GiB (80%)
Writing library : XviD 1.2.1 (UTC 2008-12-04)
Audio
ID : 1
Format : AC-3
Format/Info : Audio Coding 3
Mode extension : CM (complete main)
Codec ID : 2000
Duration : 1h 25mn
Bit rate mode : Constant
Bit rate : 448 Kbps
Channel(s) : 6 channels
Channel positions : Front: L C R, Side: L R, LFE
Sampling rate : 48.0 KHz
Bit depth : 16 bits
Compression mode : Lossy
Stream size : 275 MiB (20%)
Alignment : Split accross interleaves
Interleave, duration : 42 ms (1.00 video frame)
Interleave, preload duration : 500 ms

Скриншоты

Создавать темы 07-Ноя-2015 10:44

[Профиль]  [ЛС] 

4niko

Стаж: 6 лет 10 месяцев

Сообщений: 78

Симпатии: 11

николадеон ?

Создавать темы 08-Ноя-2015 03:30

[Профиль]  [ЛС] 
Показать сообщения:    
Ответить на тему

Текущее время: 22-Сен 14:42

Часовой пояс: UTC + 5



Вы не можете начинать темы
Вы не можете отвечать на сообщения
Вы не можете редактировать свои сообщения
Вы не можете удалять свои сообщения
Вы не можете голосовать в опросах
Вы не можете прикреплять файлы к сообщениям
Вы не можете скачивать файлы