Самоучитель игры на гитаре по нотам[«Равновесие», 720x576, 192, RU, 2005 г.]

Ответить на тему
 

pirat ®

Стаж: 5 лет 6 месяцев

Сообщений: 216

Симпатии: 63

Самоучитель игры на гитаре по нотам

Производитель: ИД «РАВНОВЕСИЕ»
Разработчик: А. Михайлов, С. Спирина, С. Волков
Год выпуска: 2005
Язык: русский
Видео кодек: MPEG1
Видео: 720x576
Аудио: 192-Описание: «Самоучитель игры на классической гитаре» создан для обучения игре на гитаре по нотам. Самоучитель содержит текстовые и нотные материалы, аудио- и видеозаписи упражнений. Материал разбит на теоретический и практический разделы.
Теория
Из раздела Вы узнаете историю возникновения гитары, устройство инструмента и рекомендации по его эксплуатации, а также познакомитесь с нотной системой.
Практика
Раздел содержит практические советы начинающему гитаристу, которые помогут освоить навыки правильной посадки и положения рук, а так же общие принципы и основные приемы игры на гитаре. Раздел содержит два практических курса и нотное приложение.
ps. также имеется продолжение под названием "Самоучитель игры на классической гитаре по аккордам", залью позже.

mediainfo

General
Complete name : E:\Torrent\Qtorrent\По нотам\VIDEO\159.mpg
Format : MPEG-PS
File size : 1.51 MiB
Duration : 5s 208ms
Overall bit rate mode : Variable
Overall bit rate : 2 432 Kbps
Writing library : encoded by TMPGEnc (ver. 2.53.35.130)
Video
ID : 224 (0xE0)
Format : MPEG Video
Format version : Version 1
Format settings, BVOP : Yes
Format settings, Matrix : Custom
Format settings, GOP : M=3, N=18
Duration : 5s 200ms
Bit rate mode : Variable
Bit rate : 2 191 Kbps
Width : 720 pixels
Height : 576 pixels
Display aspect ratio : 4:3
Frame rate : 25.000 fps
Standard : PAL
Color space : YUV
Chroma subsampling : 4:2:0
Bit depth : 8 bits
Scan type : Progressive
Compression mode : Lossy
Bits/(Pixel*Frame) : 0.211
Time code of first frame : 00:00:00:00
Time code source : Group of pictures header
GOP, Open/Closed : Open
GOP, Open/Closed of first fram : Closed
Stream size : 1.36 MiB (90%)
Writing library : TMPGEnc 2.53.35.130
Audio
ID : 192 (0xC0)
Format : MPEG Audio
Format version : Version 1
Format profile : Layer 2
Duration : 5s 208ms
Bit rate mode : Constant
Bit rate : 192 Kbps
Channel(s) : 2 channels
Sampling rate : 48.0 KHz
Compression mode : Lossy
Stream size : 122 KiB (8%)

Скриншоты



Создавать темы 07-Ноя-2015 15:58

[Профиль]  [ЛС] 

nadji

Стаж: 5 лет 10 месяцев

Сообщений: 20

Симпатии: 1

спасибо

Создавать темы 24-Ноя-2015 13:15

[Профиль]  [ЛС] 
Показать сообщения:    
Ответить на тему

Текущее время: 18-Ноя 22:45

Часовой пояс: UTC + 5



Вы не можете начинать темы
Вы не можете отвечать на сообщения
Вы не можете редактировать свои сообщения
Вы не можете удалять свои сообщения
Вы не можете голосовать в опросах
Вы не можете прикреплять файлы к сообщениям
Вы не можете скачивать файлы