Библия 21 века DVD-Video №1 - Новый мировой порядок (сборник) / Bible 21st century DVD-Video №1 - New World Order (collection) (Разные) [2009, Internet, Мировоззренческий, SATRip] [Раскрытие самых тщательно охраняемых тайн 20-го века] (Профессиональн

Ответить на тему
 

murodsoft ®

Стаж: 1 год 11 месяцев

Сообщений: 2

Симпатии: 3

Библия 21 века DVD-Video №1 - Новый мировой порядок (сборник) / Bible 21st century DVD-Video №1 - New World Order (collection) / Раскрытие самых тщательно охраняемых тайн 20-го века
Страна: Internet
Жанр: Мировоззренческий
Год выпуска: 2009
Продолжительность: 64:00:00
Перевод: Не требуется Доп. инфо о переводе Профессиональный (одноголосый)
Cубтитры: нет
Оригинальная аудиодорожка: русский
Режиссер: Разные
В ролях: Разные люди
Описание: Раскройте самые тщательно охраняемые тайны 20-го века:
Что скрывается за событиями 11 сентября – атака безумных исламистов или жертвоприношение золотому идолу? Как едва не началась 3-я мировая война после торпедирования Курска американской подводной лодкой, кто возглавил заговор для того чтобы убить президента Кеннеди.
Мировое правительство сегодня, миф или незнакомая реальность - тайная сторона деятельности центральных банков, или кто устраивает глобальные финансовые кризисы и заказывает мировые революции и мировые войны? Кто на самом деле готовил и финансировал революцию 1917 года.
Тайная история российских секретных служб. Массовые сталинские репрессии или попытка уничтожить 5-ю колонну, действующую внутри государства? Что мы знаем о деятельности российских спецслужб сегодня?
Концепция общественной безопасности или тайны управления человечеством – Петров К.П. Протоколы сионских мудрецов – миф или тайный план правления в 20-ом веке. Что такое ВТО всемирная торговая организация или всемирная террористическая организация, пытающаяся финансовым мошенничеством поработить независимые страны?
Все это на одном DVD диске
Качество видео: SATRip
Формат видео: MP4
Видео: DivX-6-5-7-8, MPEG4, AVI 240x180-640x720 14.985fps-22.762fps, 292kbps-476kbps
Аудио: MP3 22050Hz-44800Hz mono 64kbps-92kbps
Формат субтитров: softsub (SRT)

MediaInfo

General
Complete name : K:\Torrents\Russian\PS-Science\Библия 21 века DVD1 - Новый мировой порядок\00 Введение.avi
Format : AVI
Format/Info : Audio Video Interleave
File size : 12.9 MiB
Duration : 4mn 55s
Overall bit rate : 366 Kbps
Writing application : 3GP_Converter051103 www.nurs.or.jp/~calcium FFmpeg2.40b((51<<16)+(6<<8)+0)
Video
ID : 0
Format : MPEG-4 Visual
Format profile : Advanced [email protected]
Format settings, BVOP : 2
Format settings, QPel : No
Format settings, GMC : No warppoints
Format settings, Matrix : Default (H.263)
Codec ID : divx
Codec ID/Info : Mainly used by Google
Codec ID/Hint : DivX
Duration : 4mn 54s
Bit rate : 292 Kbps
Width : 240 pixels
Height : 180 pixels
Display aspect ratio : 4:3
Frame rate : 14.985 fps
Color space : YUV
Chroma subsampling : 4:2:0
Bit depth : 8 bits
Scan type : Progressive
Compression mode : Lossy
Bits/(Pixel*Frame) : 0.451
Stream size : 10.3 MiB (80%)
Writing library : Lavc50.0.0
Audio
ID : 1
Format : MPEG Audio
Format version : Version 2
Format profile : Layer 3
Codec ID : 55
Codec ID/Hint : MP3
Duration : 4mn 55s
Bit rate mode : Constant
Bit rate : 64.0 Kbps
Channel(s) : 1 channel
Sampling rate : 22.05 KHz
Compression mode : Lossy
Stream size : 2.25 MiB (17%)
Alignment : Aligned on interleaves
Interleave, duration : 26 ms (0.39 video frame)
Writing library : LAME3.96.1

Скриншот c названием фильма

http://img.tas-ix.net/image/AYx

Скриншоты



Создавать темы 08-Ноя-2015 18:32

[Профиль]  [ЛС] 

murodsoft ®

Стаж: 1 год 11 месяцев

Сообщений: 2

Симпатии: 3

В скором времени вложу продолжение релиза.

Создавать темы 17-Ноя-2015 23:43

[Профиль]  [ЛС] 
Показать сообщения:    
Ответить на тему

Текущее время: 21-Окт 15:32

Часовой пояс: UTC + 5



Вы не можете начинать темы
Вы не можете отвечать на сообщения
Вы не можете редактировать свои сообщения
Вы не можете удалять свои сообщения
Вы не можете голосовать в опросах
Вы не можете прикреплять файлы к сообщениям
Вы не можете скачивать файлы