Ватиканские записи / The Vatican Tapes (Марк Невелдайн) [2015, США, ужасы, триллер, HDRip] (VO : xixidok / ExKinoRay)

Ответить на тему
 

UZM ®

Стаж: 5 лет 2 месяца

Сообщений: 169

Симпатии: 189

Ватиканские записи / The Vatican Tapes Страна: США
Жанр: ужасы, триллер
Год выпуска: 2015
Продолжительность: 01:30:52
Перевод: Одноголосый закадровый [Хixidok / ExKinoRay]
Cубтитры: нет
Режиссер: Марк Невелдайн / Mark Neveldine
В ролях: Оливия Тейлор Дадли, Дюгрей Скотт, Элисон Ломан, Кэтлин Робертсон, Майкл Пенья, Джимон Хонсу, Джон Патрик Амедори, Майкл Паре, Темина Санни, Дэниэл Бернхард
Описание: Анжела Холмс жила обычной жизнью, пока внезапно не начала оказывать разрушительное воздействие на окружающих, причиняя людям серьезные, иногда смертельные травмы. Местный священник, отец Лозано, уверен в ее одержимости. Приглашенные для проведения сеанса экзорцизма кардиналы из Ватикана сталкиваются с древней сатанинской силой, большей, чем они могли себе представить.
Доп. информация: Сценарий этого фильма попал в «Черный список» лучших неспродюсированных сценариев 2009 года.
Перкуссионист и основатель группы Slipknot Шон Крэхан сыграл эпизодическую роль в фильме, хотя он и не указан в титрах. Он сыграл роль человека, у которого репортер берет интервью в конце фильма. Крэхан и Марк Невелдайн друзья. Они вместе работали над фильмом «Офицер Доун» (2016).
Качество видео: HDRip
Формат видео: AVI
Видео: MPEG-4, Xvid 720x400 23,976fps 1703kbps
Аудио: Dolby AC3 48,0Hz 6ch 448kbps

MediaInfo

General
Complete name : D:\Кино\The.4atican.Tapes.2015xixidok.HDRip.ExKinoRay.avi
Format : AVI
Format/Info : Audio Video Interleave
File size : 1.37 GiB
Duration : 1h 30mn
Overall bit rate : 2 161 Kbps
Writing application : VirtualDubMod 1.5.10.2 (build 2540/release)
Writing library : VirtualDubMod build 2540/release
Copyright : ExKinoRay
Video
ID : 0
Format : MPEG-4 Visual
Format profile : Advanced [email protected]
Format settings, BVOP : 1
Format settings, QPel : No
Format settings, GMC : No warppoints
Format settings, Matrix : Custom
Codec ID : XVID
Codec ID/Hint : XviD
Duration : 1h 30mn
Bit rate : 1 704 Kbps
Width : 720 pixels
Height : 400 pixels
Display aspect ratio : 16:9
Frame rate : 23.976 fps
Color space : YUV
Chroma subsampling : 4:2:0
Bit depth : 8 bits
Scan type : Progressive
Compression mode : Lossy
Bits/(Pixel*Frame) : 0.247
Stream size : 1.08 GiB (79%)
Writing library : XviD 73
Audio
ID : 1
Format : AC-3
Format/Info : Audio Coding 3
Mode extension : CM (complete main)
Format settings, Endianness : Big
Codec ID : 2000
Duration : 1h 30mn
Bit rate mode : Constant
Bit rate : 448 Kbps
Channel(s) : 6 channels
Channel positions : Front: L C R, Side: L R, LFE
Sampling rate : 48.0 KHz
Compression mode : Lossy
Stream size : 291 MiB (21%)
Alignment : Split accross interleaves
Interleave, duration : 42 ms (1.00 video frame)
Interleave, preload duration : 500 ms

Скриншот c названием фильма

Скриншоты

,
,
,


Последний раз редактировалось: UZM (2015-11-09 16:39), всего редактировалось 1 раз

Создавать темы 08-Ноя-2015 22:03

[Профиль]  [ЛС] 

UZM ®

Стаж: 5 лет 2 месяца

Сообщений: 169

Симпатии: 189

Модераторы помогите с постером, пожалуста

Создавать темы 08-Ноя-2015 22:15

[Профиль]  [ЛС] 

Davron1402

Стаж: 3 года 7 месяцев

Сообщений: 136

Симпатии: 122

Модераторы помогите с постером, пожалуста
вот так
[img=right]http://img.tas-ix.net/images/2015/11/08/cc600f3d71d...3265bfc0ca44.jpg[/img]

Создавать темы 08-Ноя-2015 22:36

[Профиль]  [ЛС] 

Grock

Стаж: 6 лет 6 месяцев

Сообщений: 637

Симпатии: 113

UZM, Готово zd

Создавать темы 09-Ноя-2015 16:40

[Профиль]  [ЛС] 

UZM ®

Стаж: 5 лет 2 месяца

Сообщений: 169

Симпатии: 189

Grock, Большое спасибо за помощь!

Создавать темы 10-Ноя-2015 06:17

[Профиль]  [ЛС] 
Показать сообщения:    
Ответить на тему

Текущее время: 18-Авг 21:27

Часовой пояс: UTC + 5



Вы не можете начинать темы
Вы не можете отвечать на сообщения
Вы не можете редактировать свои сообщения
Вы не можете удалять свои сообщения
Вы не можете голосовать в опросах
Вы не можете прикреплять файлы к сообщениям
Вы не можете скачивать файлы