Миссия невыполнима. Племя изгоев / Mission: Impossible - Rogue Nation (Кристофер МакКуорри) [2015, США, Гонконг, Китай, боевик, триллер, приключения, BDRip] (Dub) (Sub Rus)

Ответить на тему
 

ziyod ®

Стаж: 7 лет 5 месяцев

Сообщений: 367

Симпатии: 60

Миссия невыполнима. Племя изгоев / Mission: Impossible - Rogue Nation
Страна: США, Гонконг, Китай
Жанр: боевик, триллер, приключения
Год выпуска: 2015
Продолжительность: 02:11:33
Перевод: Профессиональный (дублированный)
Cубтитры: русские
Режиссер: Кристофер МакКуорри
В ролях: Том Круз, Ребекка Фергюсон, Саймон Пегг, Джереми Реннер, Винг Реймз, Шон Харрис, Алек Болдуин, Саймон МакБерни, Йенс Хультен, Том Холландер
Описание: Когда ОМН распускают, и Итан Хант остается не у дел, его команда неожиданно сталкивается с разветвленной международной сетью высокопрофессиональных спецагентов — Синдикатом. Это «племя изгоев» одержимо идеей установления нового мирового порядка и планирует серию разрушительных терактов. Итан и компания объединяются с дискредитированным британским агентом Ильзой Фауст и приступают к своей самой невыполнимой миссии…
Качество видео: BDRip
Формат видео: MKV
Видео: 1280х536, 23.976 fps, AVC, ~ 5896 kbps avg
Аудио: 48 kHz, AC3 Dolby Digital, 3/2 (L,C,R,l,r) + LFE ch, ~384 kbps
Формат субтитров: softsub (SRT)

MediaInfo

General
Unique ID : 229424260527076882797217910152696671053 (0xAC99815D6CC0DD24B9BA34E0A603AB4D)
Complete name : Mission.Impossible.Rogue.Nation.2015.D.BDRip.720p.mkv
Format : Matroska
Format version : Version 4 / Version 2
File size : 5.88 GiB
Duration : 2h 11mn
Overall bit rate : 6 400 Kbps
Encoded date : UTC 2015-11-09 05:19:38
Writing application : mkvmerge v7.6.0 ('Garden of Dreams') 32bit built on Feb 8 2015 12:51:39
Writing library : libebml v1.3.1 + libmatroska v1.4.2
DURATION : 02:03:24.272000000
NUMBER_OF_FRAMES : 1410
NUMBER_OF_BYTES : 48759
_STATISTICS_WRITING_APP : mkvmerge v7.6.0 ('Garden of Dreams') 32bit built on Feb 8 2015 12:51:39
_STATISTICS_WRITING_DATE_UT : 2015-11-09 05:19:38
_STATISTICS_TAGS : BPS DURATION NUMBER_OF_FRAMES NUMBER_OF_BYTES
Video
ID : 1
Format : AVC
Format/Info : Advanced Video Codec
Format profile : [email protected]
Format settings, CABAC : Yes
Format settings, ReFrames : 12 frames
Codec ID : V_MPEG4/ISO/AVC
Duration : 2h 11mn
Bit rate : 5 888 Kbps
Width : 1 280 pixels
Height : 536 pixels
Display aspect ratio : 2.40:1
Frame rate mode : Constant
Frame rate : 23.976 fps
Color space : YUV
Chroma subsampling : 4:2:0
Bit depth : 8 bits
Scan type : Progressive
Bits/(Pixel*Frame) : 0.358
Stream size : 5.41 GiB (92%)
Writing library : x264 core 142 r2431+42 c69a006 tMod [[email protected]:2:0 X86_64]
Encoding settings : cabac=1 / ref=12 / deblock=1:-3:-3 / analyse=0x3:0x133 / me=tesa / subme=11 / psy=1 / fade_compensate=0.00 / psy_rd=1.05:0.00 / mixed_ref=1 / me_range=24 / chroma_me=1 / trellis=2 / 8x8dct=1 / cqm=0 / deadzone=21,11 / fast_pskip=0 / chroma_qp_offset=-2 / threads=12 / lookahead_threads=3 / sliced_threads=0 / nr=0 / decimate=0 / interlaced=0 / bluray_compat=0 / constrained_intra=0 / fgo=0 / bframes=10 / b_pyramid=2 / b_adapt=2 / b_bias=0 / direct=3 / weightb=1 / open_gop=0 / weightp=2 / keyint=250 / keyint_min=23 / scenecut=40 / intra_refresh=0 / rc_lookahead=60 / rc=crf / mbtree=0 / crf=18.2000 / qcomp=0.75 / qpmin=0:0:0 / qpmax=69:69:69 / qpstep=4 / vbv_maxrate=62500 / vbv_bufsize=78125 / crf_max=0.0 / nal_hrd=none / filler=0 / ip_ratio=1.30 / pb_ratio=1.20 / aq=3:0.65 / aq-sensitivity=10.00 / aq-factor=1.00:1.00:1.00 / aq2=0 / aq3=0
Language : English
Default : Yes
Forced : No
Color range : Limited
Matrix coefficients : BT.709
DURATION : 02:11:33.761000000
NUMBER_OF_FRAMES : 189261
NUMBER_OF_BYTES : 5933851852
_STATISTICS_WRITING_APP : mkvmerge v7.6.0 ('Garden of Dreams') 32bit built on Feb 8 2015 12:51:39
_STATISTICS_WRITING_DATE_UT : 2015-11-09 05:19:38
_STATISTICS_TAGS : BPS DURATION NUMBER_OF_FRAMES NUMBER_OF_BYTES
Audio
ID : 2
Format : AC-3
Format/Info : Audio Coding 3
Mode extension : CM (complete main)
Format settings, Endianness : Big
Codec ID : A_AC3
Duration : 2h 11mn
Bit rate mode : Constant
Bit rate : 384 Kbps
Channel(s) : 6 channels
Channel positions : Front: L C R, Side: L R, LFE
Sampling rate : 48.0 KHz
Compression mode : Lossy
Stream size : 361 MiB (6%)
Title : Дубляж - iTunes
Language : Russian
Default : Yes
Forced : Yes
Text #1
ID : 3
Format : UTF-8
Codec ID : S_TEXT/UTF8
Codec ID/Info : UTF-8 Plain Text
Title : Русские, форсированные
Language : Russian
Default : Yes
Forced : Yes
Text #2
ID : 4
Format : UTF-8
Codec ID : S_TEXT/UTF8
Codec ID/Info : UTF-8 Plain Text
Title : Оригинал, форсированные
Language : English
Default : No
Forced : No
Text #3
ID : 5
Format : UTF-8
Codec ID : S_TEXT/UTF8
Codec ID/Info : UTF-8 Plain Text
Title : Оригинал
Language : English
Default : No
Forced : No
Text #4
ID : 6
Format : UTF-8
Codec ID : S_TEXT/UTF8
Codec ID/Info : UTF-8 Plain Text
Title : Оригинал, SDH
Language : English
Default : No
Forced : No
Menu
00:00:00.000 : en:00:00:00.000
00:09:53.092 : en:00:09:53.092
00:20:45.703 : en:00:20:45.703
00:25:32.072 : en:00:25:32.072
00:32:00.669 : en:00:32:00.669
00:40:03.443 : en:00:40:03.443
00:49:35.556 : en:00:49:35.556
01:01:01.157 : en:01:01:01.157
01:09:51.687 : en:01:09:51.687
01:20:20.858 : en:01:20:20.858
01:29:29.322 : en:01:29:29.322
01:38:32.824 : en:01:38:32.824
01:48:19.410 : en:01:48:19.410
01:57:13.944 : en:01:57:13.944
02:03:02.709 : en:02:03:02.709

Скриншоты



Создавать темы 09-Ноя-2015 11:02

[Профиль]  [ЛС] 
Показать сообщения:    
Ответить на тему

Текущее время: 17-Авг 01:03

Часовой пояс: UTC + 5



Вы не можете начинать темы
Вы не можете отвечать на сообщения
Вы не можете редактировать свои сообщения
Вы не можете удалять свои сообщения
Вы не можете голосовать в опросах
Вы не можете прикреплять файлы к сообщениям
Вы не можете скачивать файлы