Взрослые новички / Adult Beginners (Росс Кац) [2014, США, Драма, Комедия, HDRip] (Dub)

Ответить на тему
 

Hurracan ®

Стаж: 2 года 2 месяца

Сообщений: 79

Симпатии: 80

Взрослые новички / Adult Beginners
Страна: США
Жанр: Драма, Комедия
Год выпуска: 2014
Продолжительность: 01:32:05
Перевод: Профессиональный (дублированный)
Cубтитры: нет
Режиссер: Росс Кац
В ролях: Бобби Каннавале, Грег Джонсон, Джейн Краковски, Паула Гарсес, Роуз Бирн, Кэйтлин Фицджералд, Джоэл МакХэйл, Майк Бирбиглия, Ник Кролл, Калеб и Мэттью Пэддок
Описание: Молодой самовлюблённый предприниматель терпит крах накануне запуска своей компании. Переживать возникший на месте его жизни хаос он едет с родного Манхэттена к беременной сестре, с которой давно не поддерживал отношения, её мужу и 3-летнему племяннику, живущим в пригороде — и становится их няней.
Доп. информация:
Сценаристы: Джефф Кокс, Лиз Флэхайв, Ник Кролл
Продюсеры: Пол Бернон, Кэрри Хэмилтон, Маркус Кокс
Качество видео: HDRip
Формат видео: AVI
Видео: Xvid 720x384 23.976fps 1731kbps
Аудио: Dolby AC3 48000Hz stereo 384kbps

MediaInfo

General
Complete name : C:\Users\Hurracan\Downloads\Video\A.Beg1nners.2015.D.HDRip.1400Mb.avi
Format : AVI
Format/Info : Audio Video Interleave
File size : 1.37 GiB
Duration : 1h 32mn
Overall bit rate : 2 125 Kbps
Writing application : VirtualDubMod 1.5.10.2 (build 2540/release)
Writing library : VirtualDubMod build 2540/release
Video
ID : 0
Format : MPEG-4 Visual
Format profile : Advanced [email protected]
Format settings, BVOP : 2
Format settings, QPel : No
Format settings, GMC : No warppoints
Format settings, Matrix : Default (MPEG)
Codec ID : XVID
Codec ID/Hint : XviD
Duration : 1h 32mn
Bit rate : 1 732 Kbps
Width : 720 pixels
Height : 384 pixels
Display aspect ratio : 1.85:1
Frame rate : 23.976 fps
Color space : YUV
Chroma subsampling : 4:2:0
Bit depth : 8 bits
Scan type : Progressive
Compression mode : Lossy
Bits/(Pixel*Frame) : 0.261
Stream size : 1.11 GiB (81%)
Writing library : XviD 1.2.1 (UTC 2008-12-04)
Audio
ID : 1
Format : AC-3
Format/Info : Audio Coding 3
Mode extension : CM (complete main)
Format settings, Endianness : Big
Codec ID : 2000
Duration : 1h 32mn
Bit rate mode : Constant
Bit rate : 384 Kbps
Channel(s) : 2 channels
Channel positions : Front: L R
Sampling rate : 48.0 KHz
Compression mode : Lossy
Stream size : 253 MiB (18%)
Alignment : Split accross interleaves
Interleave, duration : 42 ms (1.00 video frame)
Interleave, preload duration : 500 ms

Скриншоты




Создавать темы 09-Ноя-2015 16:48

[Профиль]  [ЛС] 
Показать сообщения:    
Ответить на тему

Текущее время: 12-Дек 05:47

Часовой пояс: UTC + 5



Вы не можете начинать темы
Вы не можете отвечать на сообщения
Вы не можете редактировать свои сообщения
Вы не можете удалять свои сообщения
Вы не можете голосовать в опросах
Вы не можете прикреплять файлы к сообщениям
Вы не можете скачивать файлы