Поли / Paulie (Джон Робертс) [1998, США, драма, комедия, приключения, семейный, DVDRip] (Dub : Лори Крэйг) (Original Rus)

Ответить на тему
 

mr.skala13 ®

Стаж: 5 лет

Сообщений: 13

Симпатии: 1

Поли / Paulie
Страна: США
Жанр: драма, комедия, приключения, семейный
Год выпуска: 1998
Продолжительность: 91 мин. / 01:31
Перевод: Профессиональный (дублированный) Доп. инфо о переводе Лори Крэйг
Cубтитры: нет
Оригинальная аудиодорожка: русский
Режиссер: Джон Робертс
В ролях: Джина Роулендс, Тони Шэлуб, Чич Марин, Брюс Дэвисон, Трини Альварадо,
Джей Мор, Бадди Хэкетт, Халли Кейт Айзенберг, Мэтт Крэйвен, Билл Коббс, Тиа Тексада.
Описание: Самый забавный и говорливый попугай в мире из-за своих необычных талантов очень быстро попадает в неприятности. Свои способности лучше скрывать — делает вывод попугай Поли в этой забавной приключенческой картине, которая безусловно понравится всем членам семьи. Маленькая, но очень умная птичка пытается разыскать девочку, которая ее вырастила. Способность говорить приносит попугаю одни неприятности, но в сердце живет надежда, ведь на своем пути Поли встречает друзей, которые помогают ему осуществить самую заветную мечту — вернуться наконец домой!
Качество видео:: DVDRip
Формат видео:: AVI
Видео кодек: XVID
Аудио кодек: AC-3
Видео: 1923 Кбит/с, 688x384
Аудио: 448 kb/s (6 ch)

MediaInfo

Format : AVI
Format/Info : Audio Video Interleave
File size : 1.46 GiB
Duration : 1h 27mn
Overall bit rate : 2 381 Kbps
Movie name : Paulie.1998.dvdrip.dexter_lex
Director : dexter lex
Writing application : VirtualDubMod 1.5.10.3 | www.virtualdub-fr.org || (build 2550/release)
Video
ID : 0
Format : MPEG-4 Visual
Format profile : Advanced [email protected]
Format settings, BVOP : 1
Format settings, QPel : No
Format settings, GMC : No warppoints
Format settings, Matrix : Custom
Codec ID : XVID
Codec ID/Hint : XviD
Duration : 1h 27mn
Bit rate : 1 923 Kbps
Width : 688 pixels
Height : 384 pixels
Display aspect ratio : 16:9
Frame rate : 25.000 fps
Color space : YUV
Chroma subsampling : 4:2:0
Bit depth : 8 bits
Scan type : Progressive
Compression mode : Lossy
Bits/(Pixel*Frame) : 0.291
Stream size : 1.18 GiB (81%)
Writing library : XviD 73
Audio
ID : 1
Format : AC-3
Format/Info : Audio Coding 3
Mode extension : CM (complete main)
Format settings, Endianness : Big
Codec ID : 2000
Duration : 1h 27mn
Bit rate mode : Constant
Bit rate : 448 Kbps
Channel(s) : 6 channels
Channel positions : Front: L C R, Side: L R, LFE
Sampling rate : 48.0 KHz
Bit depth : 16 bits
Compression mode : Lossy
Stream size : 281 MiB (19%)
Alignment : Split accross interleaves
Interleave, duration : 40 ms (1.00 video frame)
Interleave, preload duration : 500 ms

Скриншот c названием фильма

Скриншоты





Последний раз редактировалось: mr.skala13 (2015-11-11 01:29), всего редактировалось 1 раз

Создавать темы 09-Ноя-2015 19:22

[Профиль]  [ЛС] 

Grock

Стаж: 6 лет 9 месяцев

Сообщений: 637

Симпатии: 113

mr.skala13, Допишите тех.данные картины

Создавать темы 11-Ноя-2015 00:10

[Профиль]  [ЛС] 

mr.skala13 ®

Стаж: 5 лет

Сообщений: 13

Симпатии: 1

957901mr.skala13, Допишите тех.данные картины
Все сделал, все правильно?

Создавать темы 11-Ноя-2015 02:54

[Профиль]  [ЛС] 

Grock

Стаж: 6 лет 9 месяцев

Сообщений: 637

Симпатии: 113

mr.skala13, Да, теперь все в порядке. Выставил соответствующий статус

Создавать темы 11-Ноя-2015 11:27

[Профиль]  [ЛС] 
Показать сообщения:    
Ответить на тему

Текущее время: 20-Ноя 06:59

Часовой пояс: UTC + 5



Вы не можете начинать темы
Вы не можете отвечать на сообщения
Вы не можете редактировать свои сообщения
Вы не можете удалять свои сообщения
Вы не можете голосовать в опросах
Вы не можете прикреплять файлы к сообщениям
Вы не можете скачивать файлы