Хранитель Луны / Mune, le gardien de la lune (Александр Эбоян, Бенуа Филиппон) [2014, Франция, мультфильм, WEB-DLRip] (MVO)

Ответить на тему
 

MrDrago1998 ®

Стаж: 1 год 11 месяцев

Сообщений: 3

Симпатии: 6

Хранитель Луны / Mune, le gardien de la lune
Страна: Франция
Жанр: мультфильм
Год выпуска: 2014
Продолжительность: 01:21:26
Перевод: Профессиональный (многоголосый закадровый)
Cубтитры: нет
Режиссер: Александр Эбоян, Бенуа Филиппон
В ролях: Омар Си,Изиа Ижлен,Майкл Грегорио,Шафик Ахмад,Бенуа Аллемане,Шеннон Арчи,Федор Аткин,Джошуа Дж. Баллард,Дэмиен Буассо,Эммануэль Кюртиль и т.д.
Описание: На диковинной планете, где смена дня и ночи осуществляется вручную, юного фавна Мьюна неожиданно избирают хранителем Луны. Но к своему ужасу, он почти сразу теряет ее! Воспользовавшись этим, царь подземного мира Некрос крадет и гасит Солнце. Теперь, чтобы спасти планету, Мьюн вместе с отважной девочкой из воска Глим и заносчивым Сохоном, хранителем Солнца, должны отправиться в удивительное и опасное путешествие.
Качество видео: WEB-DLRip
Формат видео: AVI
Видео: 720х304, 25.000fsb, 1999Kbps
Аудио: 48.0 KHz, stereo, 384Kbps

MediaInfo

Общее
Полное имя : XrAn1te1i.Lun1.2014.D.WEB-DLRip.avi
Формат : AVI
Формат/Информация : Audio Video Interleave
Размер файла : 1,36 Гбайт
Продолжительность : 1 ч. 21 м.
Общий поток : 2393 Кбит/сек
Программа кодирования : VirtualDubMod 1.5.10.3 | www.virtualdub-fr.org || (build 2550/release)
Библиотека кодирования : VirtualDubMod build 2550/release
Видео
Идентификатор : 0
Формат : MPEG-4 Visual
Профиль формата : Advanced [email protected]
Параметр BVOP формата : 2
Параметр QPel формата : Нет
Параметр GMC формата : Без точки перехода
Параметр матрицы формата : Default (MPEG)
Идентификатор кодека : XVID
Идентификатор кодека/Подсказка : XviD
Продолжительность : 1 ч. 21 м.
Битрейт : 1999 Кбит/сек
Ширина : 720 пикселей
Высота : 304 пикселя
Соотношение сторон : 2,35:1
Частота кадров : 25,000 кадров/сек
Цветовое пространство : YUV
Субдискретизация насыщенности : 4:2:0
Битовая глубина : 8 бит
Тип развёртки : Прогрессивная
Метод сжатия : С потерями
Бит/(Пиксели*Кадры) : 0.365
Размер потока : 1,14 Гбайт (84%)
Библиотека кодирования : XviD 1.2.1 (UTC 2008-12-04)
Аудио
Идентификатор : 1
Формат : AC-3
Формат/Информация : Audio Coding 3
Расширение режима : CM (complete main)
Параметр Endianness формата : Big
Идентификатор кодека : 2000
Продолжительность : 1 ч. 21 м.
Вид битрейта : Постоянный
Битрейт : 384 Кбит/сек
Каналы : 6 каналов
Расположение каналов : Front: L C R, Side: L R, LFE
Частота : 48,0 КГц
Битовая глубина : 16 бит
Метод сжатия : С потерями
Размер потока : 224 Мбайт (16%)
Выравнивание : Разделение по промежуткам
Продолжительность промежутка : 40 мс. (1,00 видеокадр)
Время предзагрузки промежутка : 500 мс.

Скриншоты







Последний раз редактировалось: MrDrago1998 (2015-11-17 15:23), всего редактировалось 1 раз

Создавать темы 09-Ноя-2015 22:33

[Профиль]  [ЛС] 

ElATE

Стаж: 2 года 3 месяца

Сообщений: 19

Симпатии: 39

XrAn1te1i.Lun1.2014.D.WEB-DLRip.avi
Хранитель Луны / Mune, le gardien de la lune (Александр Эбоян, Бенуа Филиппон) [2014, Франция, мультфильм, DVDRip WEB-DLRip] (MVO)
Качество видео: DVDRip WEB-DLRip
Скриншоты должны быть из исходника видеофайла a не из кинопойска и одинакового разрешения Ширина : 720 пикселей Высота : 304 пикселя.

Создавать темы 14-Ноя-2015 10:49

[Профиль]  [ЛС] 
Показать сообщения:    
Ответить на тему

Текущее время: 23-Окт 01:56

Часовой пояс: UTC + 5



Вы не можете начинать темы
Вы не можете отвечать на сообщения
Вы не можете редактировать свои сообщения
Вы не можете удалять свои сообщения
Вы не можете голосовать в опросах
Вы не можете прикреплять файлы к сообщениям
Вы не можете скачивать файлы