Мир Юрского периода / Jurassic World (Колин Треворроу / Colin Trevorrow) [2015, США, Китай, Фантастика, приключения, боевик, BDRip] [BDRip 1080p] (Dub) (Sub Rus + Original Eng)

Ответить на тему
 

ruwind ®

Стаж: 3 года 7 месяцев

Сообщений: 13

Симпатии: 16

Мир Юрского периода / Jurassic World / BDRip 1080p
Страна: США, Китай
Жанр: Фантастика, приключения, боевик
Год выпуска: 2015
Продолжительность: 02:04:22
Перевод: Профессиональный (дублированный)
Cубтитры: русские
Оригинальная аудиодорожка: английский
Режиссер: Колин Треворроу / Colin Trevorrow
В ролях: Крис Пратт, Брайс Даллас Ховард, Винсент Д’Онофрио, Ник Дж. Робинсон, Тай Симпкинс, Омар Си, Ирфан Кхан, Брайан Ти, Джейк Джонсон, Б.Д. Вонг
Описание: Фильм рассказывает о событиях, которые случились спустя 22 года после событий первого фильма. Как вам уже известно, с тех пор динозавры получили свободу в результате сбоя в электропитании. О случившемся никто особо не вспоминает, да и парк наконец стал именно таким, каким его видел создатель. Но все не так радужно, как может показаться на первый взгляд. Не смотря на то, что посетители все же имеются, вести дела стало очень тяжело. Именно по этой причине ученые решают вывести новый вид динозавров, который удивил бы публику.
Доп. информация: Это первый фильм серии, съемки которого не проходили на студии Universal в Лос-Анджелесе. Вместо этого была выбрана Луизиана из-за предоставляемых там больших налоговых льгот.
Качество видео: BDRip
Формат видео: MKV
Видео: MPEG-4 AVC, 12.0 Mбит/с, 1920x960, 23,976 fps
Аудио: Rus, AC3, 384 Kbps, 6 channels, 48.0 KHz
Аудио 2: Eng, DTS, 1510 kb/s (6 ch), 48 kHz
Формат субтитров: softsub (SRT)
Доп. информация о субтитрах: Рус, Англ

MediaInfo

General
Unique ID : 171311845747571546464687568787262930703 (0x80E1761B625A05638B01F099D4F3FF0F)
Format : Matroska
Format version : Version 2
File size : 11.6 GiB
Duration : 2h 4mn
Overall bit rate : 13.4 Mbps
Encoded date : UTC 2015-09-25 09:52:41
Writing application : mkvmerge v8.3.0 ('Over the Horizon') 64bit
Writing library : libebml v1.3.1 + libmatroska v1.4.2
DURATION : 02:04:21.120000000
NUMBER_OF_FRAMES : 178888
NUMBER_OF_BYTES : 10723938088
_STATISTICS_WRITING_APP : mkvmerge v8.3.0 ('Over the Horizon') 64bit
_STATISTICS_WRITING_DATE_UTC : 2015-09-25 09:52:41
_STATISTICS_TAGS : BPS DURATION NUMBER_OF_FRAMES NUMBER_OF_BYTES
Video #1
ID : 1
Format : AVC
Format/Info : Advanced Video Codec
Format profile : [email protected]
Format settings, CABAC : Yes
Format settings, ReFrames : 2 frames
Codec ID : V_MPEG4/ISO/AVC
Duration : 2h 4mn
Bit rate : 11.5 Mbps
Width : 1 920 pixels
Height : 960 pixels
Display aspect ratio : 2.000
Frame rate mode : Constant
Frame rate : 23.976 fps
Color space : YUV
Chroma subsampling : 4:2:0
Bit depth : 8 bits
Scan type : Progressive
Bits/(Pixel*Frame) : 0.260
Stream size : 9.76 GiB (84%)
Writing library : x264 core 148 r2579 73ae2d1
Encoding settings : cabac=1 / ref=2 / deblock=1:0:0 / analyse=0x3:0x3 / me=umh / subme=1 / psy=1 / psy_rd=1.00:0.00 / mixed_ref=0 / me_range=32 / chroma_me=1 / trellis=0 / 8x8dct=1 / cqm=0 / deadzone=21,11 / fast_pskip=1 / chroma_qp_offset=-2 / threads=36 / lookahead_threads=2 / sliced_threads=0 / nr=0 / decimate=1 / interlaced=0 / bluray_compat=0 / constrained_intra=0 / bframes=6 / b_pyramid=0 / b_adapt=1 / b_bias=0 / direct=1 / weightb=1 / open_gop=0 / weightp=1 / keyint=240 / keyint_min=23 / scenecut=40 / intra_refresh=0 / rc_lookahead=40 / rc=2pass / mbtree=0 / bitrate=11500 / ratetol=1.0 / qcomp=0.60 / qpmin=0 / qpmax=69 / qpstep=4 / cplxblur=20.0 / qblur=0.5 / vbv_maxrate=50000 / vbv_bufsize=62500 / nal_hrd=none / filler=0 / ip_ratio=1.40 / pb_ratio=1.30 / aq=1:1.00
Default : Yes
Forced : No
Audio #2
ID : 2
Format : AC-3
Format/Info : Audio Coding 3
Mode extension : CM (complete main)
Format settings, Endianness : Big
Codec ID : A_AC3
Duration : 2h 4mn
Bit rate mode : Constant
Bit rate : 384 Kbps
Channel count : 6 channels
Channel positions : Front: L C R, Side: L R, LFE
Sampling rate : 48.0 KHz
Bit depth : 16 bits
Compression mode : Lossy
Stream size : 342 MiB (3%)
Default : Yes
Forced : No
Audio #3
ID : 3
Format : DTS
Format/Info : Digital Theater Systems
Mode : 16
Format settings, Endianness : Big
Codec ID : A_DTS
Duration : 2h 4mn
Bit rate mode : Constant
Bit rate : 1 509 Kbps
Channel count : 6 channels
Channel positions : Front: L C R, Side: L R, LFE
Sampling rate : 48.0 KHz
Bit depth : 24 bits
Compression mode : Lossy
Stream size : 1.31 GiB (11%)
Language : English
Default : No
Forced : No

Скриншот c названием фильма

Скриншоты



Создавать темы 10-Ноя-2015 00:40

[Профиль]  [ЛС] 

Топик был перенесен из форума HD-AVC в форум Зарубежное кино
Grock

Создавать темы 11-Ноя-2015 00:13

 
Показать сообщения:    
Ответить на тему

Текущее время: 17-Авг 08:50

Часовой пояс: UTC + 5



Вы не можете начинать темы
Вы не можете отвечать на сообщения
Вы не можете редактировать свои сообщения
Вы не можете удалять свои сообщения
Вы не можете голосовать в опросах
Вы не можете прикреплять файлы к сообщениям
Вы не можете скачивать файлы