Воздух / Air (Кристиан Кантамесса / Christian Cantamessa) [2015, США / Automatik Entertainment, фантастика, драма, триллер, BDRip] (MVO : R5) (Sub Rus + Original Eng)

Ответить на тему
 

a123456789 ®

Стаж: 2 года

Сообщений: 1

Симпатии: 1

Воздух / Air
Страна: США / Automatik Entertainment
Жанр: фантастика, драма, триллер
Год выпуска: 2015
Продолжительность: 01:34:28
Перевод: Профессиональный (многоголосый закадровый) Доп. инфо о переводе R5
Cубтитры: русские
Оригинальная аудиодорожка: английский
Режиссер: Кристиан Кантамесса / Christian Cantamessa
В ролях: Норман Ридус, Джимон Хонсу, Сандрин Холт, Майкл Хоган, Питер Бенсон, Дэвид Найкл, Паула Линдберг, Стив Бёрджесс
Описание: В центре сюжета два человека, герои Ридуса и Хонсу. Атмосфера стала совершенно непригодной для жизни, настал апокалипсис. Но у человечества еще есть шанс на спасение. Группа людей, ученых, выжила, благодаря криогенной заморозке. Только они способны спасти жизнь на Земле, и главным героям предстоит охранять их криогенный сон. Но, как оказалось, это задача не из самых простых. Впереди ребят ожидают неимоверные испытания.
Качество видео: BDRip
Формат видео: AVI
Видео: 720x304 (2.37:1), 23.976 fps, XviD build 67 ~1815 kbps avg, 0.35 bit/pixel
Аудио: 48 kHz, AC3 Dolby Digital, 3/2 (L,C,R,l,r) + LFE ch, ~384.00 kbps avg (RUS)
Аудио 2: 48 kHz, AC3 Dolby Digital, 3/2 (L,C,R,l,r) + LFE ch, ~384.00 kbps avg (ENG) отдельно

MediaInfo

General
Complete name : D:\Vozduh_2015_BDRip_by_Dalemake.avi
Format : AVI
Format/Info : Audio Video Interleave
File size : 1.46 GiB
Duration : 1h 34mn
Overall bit rate : 2 209 Kbps
Writing application : VirtualDubMod 1.5.10.3 | www.virtualdub-fr.org || (build 2550/release)
Writing library : VirtualDubMod build 2550/release
Video
ID : 0
Format : MPEG-4 Visual
Format profile : Advanced [email protected]
Format settings, BVOP : 1
Format settings, QPel : No
Format settings, GMC : No warppoints
Format settings, Matrix : Custom
Codec ID : XVID
Codec ID/Hint : XviD
Duration : 1h 34mn
Bit rate : 1 815 Kbps
Width : 720 pixels
Height : 304 pixels
Display aspect ratio : 2.35:1
Frame rate : 23.976 fps
Color space : YUV
Chroma subsampling : 4:2:0
Bit depth : 8 bits
Scan type : Progressive
Compression mode : Lossy
Bits/(Pixel*Frame) : 0.346
Stream size : 1.20 GiB (82%)
Writing library : XviD 67
Audio
ID : 1
Format : AC-3
Format/Info : Audio Coding 3
Mode extension : CM (complete main)
Format settings, Endianness : Big
Codec ID : 2000
Duration : 1h 34mn
Bit rate mode : Constant
Bit rate : 384 Kbps
Channel(s) : 6 channels
Channel positions : Front: L C R, Side: L R, LFE
Sampling rate : 48.0 KHz
Bit depth : 16 bits
Compression mode : Lossy
Stream size : 259 MiB (17%)
Alignment : Split accross interleaves
Interleave, duration : 42 ms (1.00 video frame)
Interleave, preload duration : 500 ms

Скриншот c названием фильма

Скриншоты

Создавать темы 10-Ноя-2015 09:06

[Профиль]  [ЛС] 

Grock

Стаж: 6 лет 9 месяцев

Сообщений: 637

Симпатии: 113

a123456789, Загрузите скриншоты (минимум 3)

Создавать темы 11-Ноя-2015 00:15

[Профиль]  [ЛС] 
Показать сообщения:    
Ответить на тему

Текущее время: 23-Ноя 23:48

Часовой пояс: UTC + 5



Вы не можете начинать темы
Вы не можете отвечать на сообщения
Вы не можете редактировать свои сообщения
Вы не можете удалять свои сообщения
Вы не можете голосовать в опросах
Вы не можете прикреплять файлы к сообщениям
Вы не можете скачивать файлы