Ягодкин Николай (Advance club) | Все времена английского за 3 часа 2014

Ответить на тему
 

uktam88 ®

Стаж: 4 года 7 месяцев

Сообщений: 25

Симпатии: 8

Ягодкин Николай (Advance club) | Все времена английского за 3 часа (2014)
Автор (издатель): Ягодкин Николай (Advance club)
Жанр: Урок Английского языка
Продолжительность: 00:40:48
Качество видео: WEB-DL
Видеокодек: AVC
Битрейт видео: ~680 Kbps
Размер кадра: 1280 х 544
Аудиокодек: AAC
Битрейт аудио: 192 Kbps
Описание:
Видео урок по временам английского глагола и паттерны для отработки навыков.
В уроке объясняется теоретический материал, а затем просят нажать на паузу и проделать задания по паттернам.
Урок проводит преподаватель английского языка Светлана Ахметова.
Урок включает в себя: видео (mp4) и текстовые материалы (pdf)

Дополнительная информация

Данный урок бесплатно раздавался во время открытого семинара "Английский за 3 месяца".

MediaInfo:

General
Complete name : C:\tmp\Ягодкин Николай - Все времена английского за 3 часа\Все времена за 3 часа.mp4
Format : MPEG-4
Format profile : Base Media / Version 2
Codec ID : mp42
File size : 255 MiB
Duration : 40mn 48s
Overall bit rate mode : Variable
Overall bit rate : 874 Kbps
Encoded date : UTC 2014-03-11 23:22:44
Tagged date : UTC 2014-03-11 23:22:44
gsst : 0
gstd : 2449031
gssd : B4A7DAF82HH1408589344540719
gshh : r5---sn-aiglln76.googlevideo.com
Video
ID : 1
Format : AVC
Format/Info : Advanced Video Codec
Format profile : [email protected]
Format settings, CABAC : Yes
Format settings, ReFrames : 1 frame
Codec ID : avc1
Codec ID/Info : Advanced Video Coding
Duration : 40mn 48s
Bit rate : 680 Kbps
Maximum bit rate : 5 658 Kbps
Width : 1 280 pixels
Height : 544 pixels
Display aspect ratio : 2.35:1
Frame rate mode : Constant
Frame rate : 25.000 fps
Color space : YUV
Chroma subsampling : 4:2:0
Bit depth : 8 bits
Scan type : Progressive
Bits/(Pixel*Frame) : 0.039
Stream size : 198 MiB (78%)
Tagged date : UTC 2014-03-11 23:26:02
Audio
ID : 2
Format : AAC
Format/Info : Advanced Audio Codec
Format profile : LC
Codec ID : 40
Duration : 40mn 48s
Bit rate mode : Variable
Bit rate : 192 Kbps
Maximum bit rate : 202 Kbps
Channel count : 2 channels
Channel positions : Front: L R
Sampling rate : 44.1 KHz
Compression mode : Lossy
Stream size : 56.1 MiB (22%)
Title : IsoMedia File Produced by Google, 5-11-2011
Encoded date : UTC 2014-03-11 23:24:31
Tagged date : UTC 2014-03-11 23:26:02

Скриншоты:



Создавать темы 11-Ноя-2015 00:36

[Профиль]  [ЛС] 
Показать сообщения:    
Ответить на тему

Текущее время: 23-Сен 03:35

Часовой пояс: UTC + 5



Вы не можете начинать темы
Вы не можете отвечать на сообщения
Вы не можете редактировать свои сообщения
Вы не можете удалять свои сообщения
Вы не можете голосовать в опросах
Вы не можете прикреплять файлы к сообщениям
Вы не можете скачивать файлы