Дневники вампира / The Vampire Diaries / Сезон: 7 / Серии: 1-22 из 22 (Маркос Сига, Крис Грисмер, Венди Станцлер) [2015-2016, Ужасы, фэнтези, драма, мелодрама, WEB-DLRip] MVO (LostFilm) + Original + Subs (Rus, Eng)

Ответить на тему
 

lector_87 ®

Стаж: 3 года 10 месяцев

Сообщений: 391

Симпатии: 348

-Дневники вампира / The Vampire Diaries- Год выпуска: 2015
Страна: США
Жанр: Драма, мелодрама, ужасы
Продолжительность: 1 x ~ 00:44:00--Перевод: Профессиональный многоголосый закадровый [LostFilm]
Режиссёр: Маркос Сига, Роб Харди, Дэвид Фон Энкен, Дж. Миллер Тобин--В ролях: Пол Уэсли, Иэн Сомерхолдер, Стивен Р. МакКуин, Катерина Грэхэм, Кэндис Аккола, Зак Рериг, Майкл Тревино, Джозеф Морган, Сара Каннинг, Кайла Юэлл, Дэвид Андерс, Клер Холт, Тейлор Кинни, Келли Ху, Роберт Пралго, Брайтон МакКлур, Михаэлла МакМанус, Джэсмин Гай, Рэнди Дж. Гудвин, Миа Киршнер, Лорен Коэн, Крис Дж. Джонсон, Себастьян Роше, Торри ДеВито--Описание: Современные убийства в Мистик Фоллс напоминают Дэймону о схожих преступлениях, происходивших сто лет назад. Во флешбэках из 1912го года Дэймон вспоминает прекрасную вампиршу Сэйдж, которая показала ему, что жить можно совсем по-другому. Шериф Форбс предупреждает Дэймона, чтобы он не ввязывался в расследование, но он уверен, что она подозревает не того. Елена с Мэттом устраивают взлом, пытаясь найти улики против доктора Фелл, которую считают убийцей. По известным только ей самой причинам Ребекка начинает интересоваться расположением одной из старейших достопримечательностей города. Елена наконец-то начинает понимать, что ее жизнь пошла в другом направлении, а Дэймон совершает эмоциональное признание Стефану.--Качество: WEB-DLRip
Формат: AVI
Видео кодек: XviD
Аудио кодек: MP3
Видео: XviD, 720x400 (16:9), 23.976 fps, ~2000 kbps, 0.290 bit/pixel
Аудио:1: AC3, 48 kHz, 6 ch, 384 kbps, CBR - LostFilm
Аудио:2: AC3, 48 kHz, 6 ch, 384 kbps, CBR - оригинал
Субтитры: русские (Мекс), английские--

Скриншоты



MediaInfo

Общее
Полное имя : G:\Films\The.Vampire.Diaries.S07.720p.WEB-DL\The.Vampire.Diaries.S07E01.WEB-DLRip.LostFilm.DD5.1.avi
Формат : AVI
Формат/Информация : Audio Video Interleave
Размер файла : 846 Мбайт
Продолжительность : 42 м.
Общий поток : 2787 Кбит/сек
Программа кодирования : VirtualDubMod 1.5.10.3 (build 2550/release)
Библиотека кодирования : VirtualDubMod build 2550/release
Видео
Идентификатор : 0
Формат : MPEG-4 Visual
Профиль формата : Advanced [email protected]
Параметр BVOP формата : 2
Параметр QPel формата : Нет
Параметр GMC формата : Без точки перехода
Параметр матрицы формата : Default (MPEG)
Идентификатор кодека : XVID
Идентификатор кодека/Подсказка : XviD
Продолжительность : 42 м.
Битрейт : 2005 Кбит/сек
Ширина : 720 пикселей
Высота : 400 пикселей
Соотношение сторон : 16:9
Частота кадров : 23,976 кадра/сек
Цветовое пространство : YUV
Субдискретизация насыщенности : 4:2:0
Битовая глубина : 8 бит
Тип развёртки : Прогрессивная
Метод сжатия : С потерями
Бит/(Пиксели*Кадры) : 0.290
Размер потока : 609 Мбайт (72%)
Библиотека кодирования : XviD 73
Аудио #1
Идентификатор : 1
Формат : AC-3
Формат/Информация : Audio Coding 3
Расширение режима : CM (complete main)
Параметр Endianness формата : Big
Идентификатор кодека : 2000
Продолжительность : 42 м.
Вид битрейта : Постоянный
Битрейт : 384 Кбит/сек
Каналы : 6 каналов
Расположение каналов : Front: L C R, Side: L R, LFE
Частота : 48,0 КГц
Метод сжатия : С потерями
Размер потока : 117 Мбайт (14%)
Выравнивание : Разделение по промежуткам
Продолжительность промежутка : 42 мс. (1,00 видеокадр)
Время предзагрузки промежутка : 500 мс.
Аудио #2
Идентификатор : 2
Формат : AC-3
Формат/Информация : Audio Coding 3
Расширение режима : CM (complete main)
Параметр Endianness формата : Big
Идентификатор кодека : 2000
Продолжительность : 42 м.
Вид битрейта : Постоянный
Битрейт : 384 Кбит/сек
Каналы : 6 каналов
Расположение каналов : Front: L C R, Side: L R, LFE
Частота : 48,0 КГц
Метод сжатия : С потерями
Размер потока : 117 Мбайт (14%)
Выравнивание : Разделение по промежуткам
Продолжительность промежутка : 42 мс. (1,00 видеокадр)
Время предзагрузки промежутка : 500 мс.

Внимание! Раздача ведётся путём добавления новых серий.

Внимание! Раздача ведётся путём добавления новых серий; при каждом добавлении создётся новый торрент. Чтобы начать докачку новой серии, пользователям необходимо сделать следующее:
Остановить скачивание.
Удалить старый торрент у себя из клиента (старые серии удалять не надо).
Скачать новый торрент и запустить его у себя в клиенте вместо старого, при этом указать клиенту путь в старую папку куда и должно происходить скачивание новых серий.
Ваш клиент при этом должен произвести хеширование (проверку) старой папки (если не производит сам - помогите ему сделать это), и будет докачивать только те серии которых у вас ещё нет. Старые серии при этом не удаляются, а продолжают раздаваться!
Eсли вы уже удалили старые серии, то предотвратить повторную закачку старых серий можно, отжав галочку в соответсвующих местах при запуске нового торрента. По возможности, желательно не удалять старые серии как можно дольше чтобы релизёр не столько продолжал раздавать старые серии, а смог сконцентрироваться на новых.


Последний раз редактировалось: lector_87 (2016-06-01 19:23), всего редактировалось 10 раз(а)

Создавать темы 11-Ноя-2015 10:57

[Профиль]  [ЛС] 

lector_87 ®

Стаж: 3 года 10 месяцев

Сообщений: 391

Симпатии: 348

По просьбе некоторых пользователей добавил серии с оригинальной дорожкой

Создавать темы 11-Ноя-2015 11:00

[Профиль]  [ЛС] 

Gannibal

Стаж: 7 лет

Сообщений: 103

Симпатии: 18

Спасибо большое!
Автору респект от души!
Один из наилучших модераторов на форуме! =)

Создавать темы 11-Ноя-2015 18:41

[Профиль]  [ЛС] 

lector_87 ®

Стаж: 3 года 10 месяцев

Сообщений: 391

Симпатии: 348

10 серия

Создавать темы 18-Ноя-2015 15:05

[Профиль]  [ЛС] 

Razor

Стаж: 4 года 5 месяцев

Сообщений: 7

скачан 0 раз:?*

Создавать темы 16-Мар-2016 18:32

[Профиль]  [ЛС] 

Phantomhive

Стаж: 4 года 6 месяцев

Сообщений: 218

Симпатии: 10

lector_87, раздавай!!!

Создавать темы 26-Июл-2016 12:14

[Профиль]  [ЛС] 
Показать сообщения:    
Ответить на тему

Текущее время: 11-Дек 09:04

Часовой пояс: UTC + 5



Вы не можете начинать темы
Вы не можете отвечать на сообщения
Вы не можете редактировать свои сообщения
Вы не можете удалять свои сообщения
Вы не можете голосовать в опросах
Вы не можете прикреплять файлы к сообщениям
Вы не можете скачивать файлы