Правдивая История / True Story (Руперт Гулд) [2015, США, Драма, триллер, HDRip] MVO [iTunes] [Original Eng]

Ответить на тему
 

ruhal ®

Стаж: 2 года 8 месяцев

Сообщений: 1181

Симпатии: 1836

- -Правдивая История / True Story- Страна: США
Жанр: Драма, триллер
Год выпуска: 2015
Продолжительность: 01:39:26-Перевод: Профессиональный (многоголосый закадровый) [iTunes]
Cубтитры: нет
Оригинальная аудиодорожка: английский-Режиссер: Руперт Гулд-В ролях: Джона Хилл, Джеймс Франко, Фелисити Джонс, Мария Диззия, Итэн Сапли,Конор Кикот, Шарлотта Дрисколл, Стелла Рэй Пэйн, Роберт Джон Бёрк, Байрон Дженнингс-Описание: История взаимоотношений журналиста Майкла Финкеля и убийцы,разыскиваемого ФБР, по имени Кристиан Лонго, который много лет скрывался за пределами США под именем Финкеля.-Качество видео: HDRip
Формат видео: AVI
Видео: Xvid 720x384 23.976fps 2166kbps
Аудио: Dolby AC3 48000Hz 6ch 384kbps [Rus]
Аудио 2: Dolby AC3 48000Hz 6ch 384kbps [Eng]
-

MediaInfo

General
Complete name : E:\Films\True Story. 2015. HDRip . 2015. HDRip.avi
Format : AVI
Format/Info : Audio Video Interleave
Format profile : OpenDML
File size : 2.05 GiB
Duration : 1h 39mn
Overall bit rate : 2 952 Kbps
Writing application : VirtualDubMod 1.5.10.3 (build 2550/release)
Writing library : VirtualDubMod build 2550/release
Video
ID : 0
Format : MPEG-4 Visual
Format profile : Advanced [email protected]
Format settings, BVOP : 1
Format settings, QPel : No
Format settings, GMC : No warppoints
Format settings, Matrix : Custom
Codec ID : XVID
Codec ID/Hint : XviD
Duration : 1h 39mn
Bit rate : 2 166 Kbps
Width : 720 pixels
Height : 384 pixels
Display aspect ratio : 1.85:1
Frame rate : 23.976 fps
Color space : YUV
Chroma subsampling : 4:2:0
Bit depth : 8 bits
Scan type : Progressive
Compression mode : Lossy
Bits/(Pixel*Frame) : 0.327
Stream size : 1.50 GiB (73%)
Writing library : XviD 73
Audio #1
ID : 1
Format : AC-3
Format/Info : Audio Coding 3
Mode extension : CM (complete main)
Format settings, Endianness : Big
Codec ID : 2000
Duration : 1h 39mn
Bit rate mode : Constant
Bit rate : 384 Kbps
Channel(s) : 6 channels
Channel positions : Front: L C R, Side: L R, LFE
Sampling rate : 48.0 KHz
Compression mode : Lossy
Stream size : 273 MiB (13%)
Alignment : Split accross interleaves
Interleave, duration : 42 ms (1.00 video frame)
Interleave, preload duration : 500 ms
Audio #2
ID : 2
Format : AC-3
Format/Info : Audio Coding 3
Mode extension : CM (complete main)
Format settings, Endianness : Big
Codec ID : 2000
Duration : 1h 39mn
Bit rate mode : Constant
Bit rate : 384 Kbps
Channel(s) : 6 channels
Channel positions : Front: L C R, Side: L R, LFE
Sampling rate : 48.0 KHz
Compression mode : Lossy
Stream size : 273 MiB (13%)
Alignment : Split accross interleaves
Interleave, duration : 42 ms (1.00 video frame)
Interleave, preload duration : 500 ms

Скриншот c названием фильма

Скриншоты




Последний раз редактировалось: ruhal (2015-12-20 20:44), всего редактировалось 2 раз(а)

Создавать темы 12-Ноя-2015 19:30

[Профиль]  [ЛС] 

Rolex

Стаж: 5 лет 10 месяцев

Сообщений: 59

Симпатии: 11

Чё как фильмец ? На Кинопоиске его чё то не особо хвалят. Кто смотрел ?

Создавать темы 13-Ноя-2015 20:44

[Профиль]  [ЛС] 

dr.sadri

Стаж: 2 года 8 месяцев

Сообщений: 38

Симпатии: 26

Очень классный фильм. Давно такого не смотрел. Рекомендую всем. Могу сказать 10 из 10 балов!!!

Создавать темы 03-Дек-2015 20:25

[Профиль]  [ЛС] 

[email protected]

Стаж: 6 лет 10 месяцев

Сообщений: 138

Симпатии: 10

Огромное спасибо за английскую дорожку!

Создавать темы 06-Дек-2015 21:47

[Профиль]  [ЛС] 

farxad.amanbaef

Стаж: 2 года 3 месяца

Сообщений: 1

Симпатии: 1

ДА Фильм просто клаас)

Создавать темы 10-Фев-2016 12:10

[Профиль]  [ЛС] 
Показать сообщения:    
Ответить на тему

Текущее время: 16-Дек 15:55

Часовой пояс: UTC + 5



Вы не можете начинать темы
Вы не можете отвечать на сообщения
Вы не можете редактировать свои сообщения
Вы не можете удалять свои сообщения
Вы не можете голосовать в опросах
Вы не можете прикреплять файлы к сообщениям
Вы не можете скачивать файлы