Рики и Флэш / Ricki and the Flash (Джонатан Демме) [2015, США, Драма, Комедия, HDDVDRip] (Dub)

Ответить на тему
 

Next_1 ®

Стаж: 4 года

Сообщений: 32

Симпатии: 53

Рики и Флэш / Ricki and the Flash
Страна: США
Жанр: Драма, Комедия
Год выпуска: 2015
Продолжительность: 01:41:00
Перевод: Профессиональный (дублированный)
Cубтитры: нет
Оригинальная аудиодорожка: английский
Режиссер: Джонатан Демме
В ролях: Мэрил Стрип, Мэми Гаммер, Кевин Клайн, Одра МакДональд,
Себастьян Стэн, Рик Спрингфилд, Рик Росас, Джо Витале, Берни Уоррелл, Бен Платт
Описание: Бывшая рок-звезда, очень популярная в прошлом,
понимая, что лучшие ее годы далеко позади, решает восстановить свои отношения с мужем и дочкой,
которыми она пожертвовала ради карьеры. Но ситуацию осложняет ее новая любовь...
Качество видео: WEB-DL
Формат видео: MKV
Видео: Xvid 1916x800 23,976fps 4376 Кбит/сек
Аудио: Dolby AC3 48000Hz stereo 384 Кбит/сек

MediaInfo

Общее
Уникальный идентификатор : 249069344231270080294839141725903497819 (0xBB6102C5A63AE516B1C827B91D87AA5B)
Полное имя : E:\Торрент\Фильмы и видео\P1k1.i.FLeW.2O15.D.WEB-DL.1080p.mkv
Формат : Matroska
Версия формата : Version 4 / Version 2
Размер файла : 3,44 Гбайт
Продолжительность : 1 ч. 41 м.
Общий поток : 4856 Кбит/сек
Дата кодирования : UTC 2015-11-04 18:38:16
Программа кодирования : mkvmerge v8.3.0 ('Over the Horizon') 64bit
Библиотека кодирования : libebml v1.3.1 + libmatroska v1.4.2
DURATION : 01:41:26.080000000
NUMBER_OF_FRAMES : 190190
NUMBER_OF_BYTES : 292131840
_STATISTICS_WRITING_APP : mkvmerge v8.3.0 ('Over the Horizon') 64bit
_STATISTICS_WRITING_DATE_UTC : 2015-11-04 18:38:16
_STATISTICS_TAGS : BPS DURATION NUMBER_OF_FRAMES NUMBER_OF_BYTES
Видео
Идентификатор : 1
Формат : AVC
Формат/Информация : Advanced Video Codec
Профиль формата : [email protected]
Параметр CABAC формата : Да
Параметр ReFrames формата : 5 кадров
Идентификатор кодека : V_MPEG4/ISO/AVC
Продолжительность : 1 ч. 41 м.
Битрейт : 4376 Кбит/сек
Ширина : 1916 пикселей
Высота : 800 пикселей
Соотношение сторон : 2,40:1
Режим частоты кадров : Постоянный
Частота кадров : 23,976 кадра/сек
Цветовое пространство : YUV
Субдискретизация насыщенности : 4:2:0
Битовая глубина : 8 бит
Тип развёртки : Прогрессивная
Бит/(Пиксели*Кадры) : 0.119
Размер потока : 3,10 Гбайт (90%)
Язык : English
Default : Да
Forced : Нет
Цветовой диапазон : Limited
Основные цвета : BT.709
Характеристики трансфера : BT.709
Коэффициенты матрицы : BT.709
Аудио
Идентификатор : 2
Формат : AC-3
Формат/Информация : Audio Coding 3
Расширение режима : CM (complete main)
Параметр Endianness формата : Big
Идентификатор кодека : A_AC3
Продолжительность : 1 ч. 41 м.
Вид битрейта : Постоянный
Битрейт : 384 Кбит/сек
Каналы : 6 каналов
Расположение каналов : Front: L C R, Side: L R, LFE
Частота : 48,0 КГц
Метод сжатия : С потерями
Размер потока : 279 Мбайт (8%)
Язык : Russian
Default : Да
Forced : Нет
Меню
00:00:00.000 : en:1
00:07:26.000 : en:2
00:12:47.000 : en:3
00:19:02.000 : en:4
00:24:36.000 : en:5
00:28:05.000 : en:6
00:34:17.000 : en:7
00:41:55.000 : en:8
00:45:32.000 : en:9
00:49:32.000 : en:10
00:56:01.000 : en:11
01:03:23.000 : en:12
01:07:58.000 : en:13
01:17:59.000 : en:14
01:22:56.000 : en:15
01:30:12.000 : en:16

Скриншот c названием фильма


Скриншоты





Последний раз редактировалось: Next_1 (2015-11-13 16:47), всего редактировалось 4 раз(а)

Создавать темы 12-Ноя-2015 20:53

[Профиль]  [ЛС] 

Next_1 ®

Стаж: 4 года

Сообщений: 32

Симпатии: 53

а можно его перенести на фильмы 2015?

Создавать темы 12-Ноя-2015 21:42

[Профиль]  [ЛС] 

ElATE

Стаж: 2 года 3 месяца

Сообщений: 19

Симпатии: 39

Рики и Флэш / Ricki and the Flash (Джонатан Демме) [2015, США, Драма, Комедия, HDDVDRip] (Dub) (Original Eng)
Качество видео: WEB-DL
В шапке надо бы поправить и в качестве видео добавить WEB-DL 1080p
Аудио: Dolby AC3 48000Hz stereo 384 Кбит/сек
добавьте rus
Тут нету второй аудиодорожки исходя из ваших медиаданных и поэтому в шапке нужно убрать (Original Eng)

Создавать темы 14-Ноя-2015 12:37

[Профиль]  [ЛС] 
Показать сообщения:    
Ответить на тему

Текущее время: 22-Окт 04:16

Часовой пояс: UTC + 5



Вы не можете начинать темы
Вы не можете отвечать на сообщения
Вы не можете редактировать свои сообщения
Вы не можете удалять свои сообщения
Вы не можете голосовать в опросах
Вы не можете прикреплять файлы к сообщениям
Вы не можете скачивать файлы